Categories
Welcome to Music Torrent Tracker - Sound-Park  ι  JOIN US FOR FULL ACCESS  ι  Log In  ι  Forgot your password?

Snarky Puppy - Culcha Vulcha (Lossless, Hi Res 2016)

Jazz  Fusion  World
 
Date: 20 november 2016
Added: StasOn11
Views: 3215
  • ARTIST: Snarky Puppy
  • ALBUM / TITLE: Culcha Vulcha
  • RELEASE YEAR / DATE: 2016
  • COUNTRY: United States
  • STYLE: Fusion, Jazz-Funk, World
  • LABEL: GroundUp Music
  • DURATION: 01:05:39
  • FILE FORMAT: FLAC, (tracks) 24 bits, 48 KHz
  • QUALITY: Lossless

  • RATING: 10 / 5    
  • VOTE:

  • DOWNLOAD: DOWNLOAD TORRENT
  • СИДЫ:

Torrent description


1. Tarova
2. Semente
3. Gemini
4. Grown Folks
5. Beep Box
6. G?
7. The Simple Life
8. Palermo
9. Big Ugly
10. Jefe

Источник (релизер): топорАропот

hdtracks.com

foobar2000 1.3.12 / Замер динамического диапазона (DR) 1.1.1
Дата отчёта: 2016-11-19 09:46:37

--------------------------------------------------------------------------------
Анализ: Snarky Puppy / Culcha Vulcha
--------------------------------------------------------------------------------

DR Пики RMS Продолжительность трека
--------------------------------------------------------------------------------
DR7 0.00 дБ -8.73 дБ 3:39 01-Tarova
DR7 0.00 дБ -9.07 дБ 7:12 02-Semente
DR7 0.00 дБ -8.96 дБ 5:15 03-Gemini
DR8 0.00 дБ -10.22 дБ 7:57 04-Grown Folks
DR8 0.00 дБ -10.53 дБ 4:01 05-Beep Box
DR7 0.00 дБ -8.52 дБ 8:53 06-G?
DR9 0.00 дБ -11.35 дБ 4:02 07-The Simple Life
DR8 0.00 дБ -10.48 дБ 6:37 08-Palermo
DR8 0.00 дБ -10.28 дБ 9:09 09-Big Ugly
DR10 0.00 дБ -11.56 дБ 8:53 10-Jefe
--------------------------------------------------------------------------------

Количество треков: 10
Реальные значения DR: DR8

Частота: 48000 Гц
Каналов: 2
Разрядность: 24
Битрейт: 1876 кбит/с
Кодек: FLAC
================================================================================

As Snarky Puppy, the open-minded American jazz and funk collective, have evolved a riproaring live show from endless road life, they’ve specialised in live albums. However, their fans worldwide need not fear that a first studio project in eight years might be a self-conscious affair: it’s a delightful surprise to be handing five stars to a jazz-influenced venture with little explicit improv. The group have grasped a different improvising opportunity, juggling audaciously with the styles of jazz, world and popular music of the past half-century as if their typical riffs and themes were phrases in a shapely but ever-changing solo. Classic big-band horn riffs and jazz-funk synth licks seamlessly mix; Hermeto Pascoalian flutes flow into squelching bass guitar; Weather Report atmospherics and 80s-Miles grooves seamlessly segue, and the coolly Crusaders-like, guitar-choppy G? ought to be a single. Jazzers might still balk at the high-concept planning, but it’s remarkable how much polish has been applied without cramping the band’s irrepressible creative energy. (John Fordham, The Guardian)

Michael League – bass, composer
Bill Laurance – keyboards
Cory Henry – keyboards
Justin Stanton – trumpet, keyboards
Shaun Martin – keyboards
Bob Lanzetti – guitar
Mark Lettieri – guitar
Chris McQueen – guitar
Mike Maher – trumpet
Jay Jennings – trumpet
Chris Bullock – tenor sax, flute, clarinet
Bob Reynolds – saxophone
Robert “Sput” Searight – drums
Nate Werth – percussion






Comments (4)


23 august 2017
StasOn11   
+2 
PR:XCityXXX GBXXX GBПостовХС
В
Л
Х

Citation:  Orutra58
Great Recording !!. Thanks !!


22 august 2017
Orutra58   
+1 
PR:XCityXXX GBXXX GBПостовХС
В
Л
Х

Great Recording !!. Thanks !!


21 may 2017
StasOn11   
+2 
PR:XCityXXX GBXXX GBПостовХС
В
Л
Х

Citation:  Kawok
Thanks!!!

You’re welcome!


21 may 2017
Kawok   
+2 
PR:XCityXXX GBXXX GBПостовХС
В
Л
Х

Thanks!!!



 

Similar albums

+ More
  • Snarky Puppy - Culcha Vulcha (Lossless, Hi Res 2016)
  • Download Snarky Puppy - Culcha Vulcha (Lossless, Hi Res 2016) - free music torrent.

    Download Snarky Puppy - Culcha Vulcha (Lossless, Hi Res 2016) for free in Lossless quality.

    You can download the torrent file on the top of the page
.

    Look for more music Snarky Puppy


Please enable Javascript!
Пожалуйста включите Javascript, иначе данный и другие сайты могут работать не корректно! Узнать как включить Javascript можно на Google Support