Categories
Welcome to Music Torrent Tracker - Sound-Park  ι  JOIN US FOR FULL ACCESS  ι  Log In  ι  Forgot your password?

Eric Gales - The Bookends (Lossless, Hi Res 2019)

Blues-rock  Hard Rock
 
Date: 8 february 2019
Added: StasOn11
Views: 3850
  • ARTIST: Eric Gales
  • ALBUM / TITLE: The Bookends
  • RELEASE YEAR / DATE: 2019
  • COUNTRY: United States
  • STYLE: Blues Rock, Hard Rock
  • LABEL: Provogue Records
  • DURATION: 00:50:30
  • FILE FORMAT: FLAC, (tracks) 24 bits, 44,1 KHz
  • QUALITY: Lossless
  • Site: ericgalesband.com

  • RATING: 9.87 / 15    
  • VOTE:

  • DOWNLOAD: DOWNLOAD TORRENT
  • СИДЫ:

Torrent description



01. Intro (1:55)
02. Something's Gotta Give (feat. B. Slade) (4:20)
03. Whatcha Gon' Do (3:28)
04. It Just Beez That Way (4:21)
05. How Do I Get You (4:14)
06. Southpaw Serenade (feat. Doyle Bramhall II) (8:31)
07. Reaching For A Change (4:50)
08. Somebody Lied (4:02)
09. With A Little Help From My Friends (feat. Beth Hart) (6:03)
10. Resolution (5:05)
11. Pedal To The Metal (feat. B. Slade) [Remix] [Bonus Track] (3:46)

Qobuz

Источник (релизер): Andromaxvic

Эрик Гэйлс ака Raw Dawg – одаренный музыкант из Мемфиса (штат Теннеси) - выпустил новый альбом.


foobar2000 1.4.1 / Замер динамического диапазона (DR) 1.1.1
Дата отчёта: 2019-02-08 08:47:27

--------------------------------------------------------------------------------
Анализ: Eric Gales / The Bookends
--------------------------------------------------------------------------------

DR Пики RMS Продолжительность трека
--------------------------------------------------------------------------------
DR6 -0.30 дБ -8.21 дБ 1:55 01-Intro
DR7 -0.22 дБ -9.20 дБ 4:20 02-Something's Gotta Give (Feat. B. Slade)
DR6 -0.27 дБ -8.44 дБ 3:28 03-Whatcha Gon' Do
DR9 -0.30 дБ -10.38 дБ 4:21 04-It Just Beez That Way
DR6 -0.28 дБ -8.72 дБ 4:14 05-How Do I Get You
DR6 -0.28 дБ -7.92 дБ 8:31 06-Southpaw Serenade (Feat. Doyle Bramhall Ii)
DR7 -0.27 дБ -8.59 дБ 4:50 07-Reaching For A Change
DR8 -0.26 дБ -10.27 дБ 4:02 08-Somebody Lied
DR6 -0.30 дБ -7.90 дБ 6:03 09-With A Little Help From My Friends (Feat. Beth Hart)
DR6 -0.30 дБ -8.35 дБ 5:05 10-Resolution
DR9 -0.25 дБ -11.31 дБ 3:46 11-Pedal To The Metal (Feat. B. Slade) [remix] [bonus Track]
--------------------------------------------------------------------------------

Количество треков: 11
Реальные значения DR: DR7

Частота: 44100 Гц
Каналов: 2
Разрядность: 24
Битрейт: 1590 кбит/с
Кодек: FLAC
================================================================================



Comments (9)


16 february 2019
miok   
0 
PR:XCityXXX GBXXX GBПостовХС
В
Л
Х

Thank you very much!


12 february 2019
StasOn11   
0 
PR:XCityXXX GBXXX GBПостовХС
В
Л
Х

Citation:  Nasyroff
Ну,как тут мимо пройти...
СПАСИБО!!!

Citation:  serega1964
Спасибо Стас !!! Зажигательно !!!

Благодарю за "Спасибо"!


12 february 2019
sergey1959   
+1 
PR:XCityXXX GBXXX GBПостовХС
В
Л
Х

отличный альбом!!!


12 february 2019
Nasyroff   
+2 
PR:XCityXXX GBXXX GBПостовХС
В
Л
Х

Ну,как тут мимо пройти...
СПАСИБО!!!


11 february 2019
serega1964   
+2 
PR:XCityXXX GBXXX GBПостовХС
В
Л
Х

Спасибо Стас !!! Зажигательно !!!


8 february 2019
aleox16   
+2 
PR:XCityXXX GBXXX GBПостовХС
В
Л
Х

gracias


8 february 2019
furleyman   
+1 
PR:XCityXXX GBXXX GBПостовХС
В
Л
Х

thank u


8 february 2019
METALSHOP   
+1 
PR:XCityXXX GBXXX GBПостовХС
В
Л
Х

THANKS.


8 february 2019
Bagdee   
+2 
PR:XCityXXX GBXXX GBПостовХС
В
Л
Х

Thank you, Stas



 

Similar albums

+ More
Please enable Javascript!
Пожалуйста включите Javascript, иначе данный и другие сайты могут работать не корректно! Узнать как включить Javascript можно на Google Support