Categories
Welcome to Music Torrent Tracker - Sound-Park  ι  JOIN US FOR FULL ACCESS  ι  Log In  ι  Forgot your password?

Woong San - I’m Alright (Lossless, Hi Res 2018)

Vocal jazz
 
Date: 17 february 2019
Added: StasOn11
Views: 1893
  • ARTIST: Woong San
  • ALBUM / TITLE: I’m Alright
  • RELEASE YEAR / DATE: 2018
  • COUNTRY: South Korea
  • STYLE: Vocal Jazz
  • LABEL: Universal Music
  • DURATION: 00:53:23
  • FILE FORMAT: FLAC, (tracks) 24 bits, 96 KHz
  • QUALITY: Lossless
  • Site: woongsanjazz.com

  • RATING: 10 / 5    
  • VOTE:

  • DOWNLOAD: DOWNLOAD TORRENT
  • СИДЫ:

Torrent description



01 - Smoke Gets In Your Eyes (5:56)
02 - Heartless (3:28)
03 - Bear Walk (4:30)
04 - Too Far (4:39)
05 - Love Is A Losing Game (5:06)
06 - I’m Alright (4:22)
07 - You And The Night And The Music (3:42)
08 - Forget Regret (5:27)
09 - I Love You More Than You'll Ever Know (6:41)
10 - I Can’t Stand The Rain (5:38)
11 - Tell Me Why (3:54)

Universal
HDtracks

Источник (релизер): MihRih


foobar2000 1.4 / Dynamic Range Meter 1.1.1
log date: 2018-10-14 17:43:14

--------------------------------------------------------------------------------
Analyzed: Woong San / I'm Alright
--------------------------------------------------------------------------------

DR Peak RMS Duration Track
--------------------------------------------------------------------------------
DR8 -0.11 dB -9.87 dB 5:56 01-Smoke Gets In Your Eyes
DR8 -0.11 dB -9.45 dB 3:28 02-Heartless
DR7 -0.11 dB -8.45 dB 4:30 03-Bear Walk
DR7 -0.11 dB -10.09 dB 4:39 04-Too Far
DR8 -0.11 dB -9.42 dB 5:06 05-Love Is A Losing Game
DR6 -0.11 dB -9.06 dB 4:22 06-I’m Alright
DR9 -0.11 dB -11.69 dB 3:42 07-You And The Night And The Music
DR6 -0.11 dB -8.48 dB 5:27 08-Forget Regret
DR7 -0.11 dB -9.68 dB 6:41 09-I Love You More Than You'll Ever Know
DR8 -0.11 dB -10.07 dB 5:38 10-I Can’t Stand The Rain
DR8 -0.11 dB -11.47 dB 3:54 11-Tell Me Why
--------------------------------------------------------------------------------

Number of tracks: 11
Official DR value: DR7

Samplerate: 96000 Hz
Channels: 2
Bits per sample: 24
Bitrate: 2850 kbps
Codec: FLAC
================================================================================



Comments (10)


25 march 2019
igormask   
0 
PR:XCityXXX GBXXX GBПостовХС
В
Л
Х

IT'S INCREDIBLE!!!! we want MORE, please...


24 march 2019
sadunshkas   
0 
PR:XCityXXX GBXXX GBПостовХС
В
Л
Х

Thank you!!!


23 march 2019
sorun1120   
0 
PR:XCityXXX GBXXX GBПостовХС
В
Л
Х

Thank you


2 march 2019
aleox16   
0 
PR:XCityXXX GBXXX GBПостовХС
В
Л
Х

gracias


1 march 2019
BabaЯга   
0 
PR:XCityXXX GBXXX GBПостовХС
В
Л
Х

Спасибо!


22 february 2019
DimonAlena   
0 
PR:XCityXXX GBXXX GBПостовХС
В
Л
Х

Спасибо !!! - - - S U P E R !!!


20 february 2019
FETR75   
0 
PR:XCityXXX GBXXX GBПостовХС
В
Л
Х

Super!


18 february 2019
StasOn11   
0 
PR:XCityXXX GBXXX GBПостовХС
В
Л
Х

Citation:  Снумик
Спасибо. Отличный альбом.

Благодарю за "Спасибо"!


18 february 2019
Снумик   
+2 
PR:XCityXXX GBXXX GBПостовХС
В
Л
Х

Спасибо. Отличный альбом.


17 february 2019
Bagdee   
+1 
PR:XCityXXX GBXXX GBПостовХС
В
Л
Х

Thank you



 

Similar albums

Please enable Javascript!
Пожалуйста включите Javascript, иначе данный и другие сайты могут работать не корректно! Узнать как включить Javascript можно на Google Support