Categories
Welcome to Music Torrent Tracker - Sound-Park  ι  JOIN US FOR FULL ACCESS  ι  Log In  ι  Forgot your password?

Alphaville - Forever Young (Super Deluxe) (Remastered) (Lossless, Hi Res 2019)

Synthpop  New Wave
 
Date: 16 march 2019
Added: StasOn11
Views: 4767
  • ARTIST: Alphaville
  • ALBUM / TITLE: Forever Young (Super Deluxe) (Remastered)
  • RELEASE YEAR / DATE: 2019
  • COUNTRY: Germany
  • STYLE: Synthpop, New Wave
  • LABEL: WM Germany
  • DURATION: 03:07:29
  • FILE FORMAT: FLAC, (tracks) 24 bits, 44,1 KHz
  • QUALITY: Lossless
  • Site: alphaville.info

  • RATING: 9.81 / 26    
  • VOTE:

  • DOWNLOAD: DOWNLOAD TORRENT
  • СИДЫ:

Torrent description



01. A Victory of Love (04:17)
02. Summer in Berlin (04:46)
03. Big in Japan (04:44)
04. To Germany with Love (04:13)
05. Fallen Angel (03:57)
06. Forever Young (03:46)
07. In the Mood (04:32)
08. Sounds Like a Melody (04:46)
09. Lies (03:33)
10. The Jet Set (04:56)
11. Big in Japan (Single Version) (03:54)
12. Seeds (03:18)
13. Sounds Like a Melody (Single Version) (04:32)
14. The Nelson Highrise (Sector 1: The Elevator) [Single Version] (03:17)
15. Forever Young (Version Rapide) (03:51)
16. Welcome to the Sun (03:12)
17. The Jet Set (Single Remix) (03:52)
18. Golden Feeling (03:53)
19. Big in Japan (Extended Remix) (07:25)
20. Sounds Like a Melody (Special Long Version) (07:44)
21. The Nelson Highrise (Sector 1: The Elevator) [12" Version] (04:14)
22. Forever Young (Special Dance Version) (06:12)
23. The Jet Set (Jellybean Mix) (06:31)
24. Big in Japan (Extended Instrumental) (05:58)
25. The Jet Set (Dub Mix) (05:08)

MORE


Highresaudio

Источник (релизер): Stephenten
Newly remastered! The world of pop music changed forever on January 12, 1984. It was the day when Alphaville released their debut single "Big In Japan," the first giant step on the band's way to global stardom. The song not only shot straight to #1 on the charts in Germany, Sweden, Switzerland and the Billboard Dance Chart, but also effortlessly dominated the Top 10 in the UK and many other countries across the globe. It was just the beginning of a much bigger adventure! After their globally successful first single, Marian Gold, Bernhard Lloyd and Frank Mertens recorded their debut album Forever Young that enjoys international popularity to this day.

Even before the album was released, the band unveiled their second single "Sounds Like A Melody" that topped the charts in Sweden yet again and reached the Top 10 in several European countries. The title track "Forever Young" was released along with the album on September 27, 1984. Since then the track has become one of the greatest pop anthems of all time. It will be hard to name another track that has been covered as frequently across all genres (by Imagine Dragons, rapper Jay-Z or Kim Wilde) or included as often in movies and TV series. The Forever Young album hit the Top 20 in six European countries, went triple Gold in Germany and was awarded a Swedish Rockbjörnen as "best foreign album".

Alphaville vocalist Marian Gold says, "My musical career actually kicked off with a kicking out. When 'Big in Japan' had been released and stormed the charts all over Europe in the blink of an eye I was still busy in this restaurant kitchen in Münster peeling potatoes. And the cook said: 'Boy, they're playing your song on the radio every hour.' And then he threw me out."

'Forever Young' the album hit the Top 20 in six European countries, went triple Gold in Germany and was awarded a Swedish Rockbjörnen as 'best foreign album'. The iconic album from 1984 has been remastered for the first time ever including additional bonus material.

"Producing the 'Forever Young' album back in the day was quite an adventure that brought about amazing results. We focused mainly on the vinyl album, seeing as CD mastering in 1984 was not yet as advanced. Luckily, I was able to dig up all of the original analogue master tapes that we had actually only recorded to be on the safe side. The newly mastered version of the album has a much warmer, rounder and more transparent sound, just as we had imagined back in the day," says Bernhard Lloyd.


foobar2000 1.4 / Dynamic Range Meter 1.1.1
log date: 2019-03-15 21:36:25

--------------------------------------------------------------------------------
Analyzed: Alphaville / Forever Young (Super Deluxe) [Remaster]
--------------------------------------------------------------------------------

DR Peak RMS Duration Track
--------------------------------------------------------------------------------
DR10 -0.11 dB -12.44 dB 4:17 01-A Victory of Love
DR9 -0.11 dB -10.71 dB 4:46 02-Summer in Berlin
DR9 -0.11 dB -11.01 dB 4:45 03-Big in Japan
DR9 -0.11 dB -11.15 dB 4:13 04-To Germany with Love
DR9 -0.11 dB -11.79 dB 3:57 05-Fallen Angel
DR10 -0.11 dB -12.30 dB 3:46 06-Forever Young
DR9 -0.11 dB -11.61 dB 4:32 07-In the Mood
DR9 -0.11 dB -10.90 dB 4:46 08-Sounds Like a Melody
DR9 -0.11 dB -10.01 dB 3:33 09-Lies
DR8 -0.11 dB -10.12 dB 4:56 10-The Jet Set
DR10 -0.01 dB -11.63 dB 3:55 11-Big in Japan (Single Version)
DR9 0.00 dB -11.98 dB 3:19 12-Seeds
DR10 -0.04 dB -11.86 dB 4:32 13-Sounds Like a Melody (Single Version)
DR11 -0.17 dB -11.71 dB 3:18 14-The Nelson Highrise (Sector 1: The Elevator) [Single Version]
DR9 -0.14 dB -11.57 dB 3:51 15-Forever Young (Version Rapide)
DR9 -1.99 dB -14.09 dB 3:12 16-Welcome to the Sun
DR10 -0.16 dB -12.04 dB 3:53 17-The Jet Set (Single Remix)
DR9 -0.10 dB -11.20 dB 3:54 18-Golden Feeling
DR10 -0.06 dB -12.20 dB 7:25 19-Big in Japan (Extended Remix)
DR9 0.00 dB -10.33 dB 7:45 20-Sounds Like a Melody (Special Long Version)
DR10 -0.09 dB -11.35 dB 4:14 21-The Nelson Highrise (Sector 1: The Elevator) [12" Version]
DR10 -0.10 dB -10.89 dB 6:12 22-Forever Young (Special Dance Version)
DR11 -0.11 dB -13.09 dB 6:31 23-The Jet Set (Jellybean Mix)
DR11 -0.12 dB -13.55 dB 5:58 24-Big in Japan (Extended Instrumental)
DR12 -0.21 dB -13.71 dB 5:08 25-The Jet Set (Dub Mix)
DR9 -0.20 dB -10.87 dB 4:17 26-A Victory of Love (Demo Remix)
DR9 -0.03 dB -9.90 dB 6:57 27-Summer In Berlin (Original Demo)
DR9 -0.12 dB -10.28 dB 6:24 28-Big in Japan (Demo Remix)
DR8 -0.18 dB -10.38 dB 4:30 29-To Germany with Love (Original Demo)
DR9 -0.17 dB -10.38 dB 4:08 30-Fallen Angel (Demo Remix)
DR8 -0.15 dB -9.65 dB 4:45 31-Forever Young (Demo Remix)
DR8 -0.11 dB -9.94 dB 5:05 32-In the Mood (Demo Remix)
DR9 -0.11 dB -10.51 dB 4:25 33-Sounds Like a Melody (Original Demo)
DR8 -0.12 dB -8.97 dB 3:49 34-Lies (Original Demo)
DR8 -0.15 dB -8.78 dB 4:22 35-The Jet Set (Original Demo)
DR9 -0.15 dB -10.44 dB 3:16 36-Leben Ohne Ende / Seeds (Original Demo)
DR10 -0.19 dB -11.92 dB 5:19 37-Traumtänzer (Original Demo)
DR8 -0.19 dB -10.09 dB 4:41 38-Blauer Engel (Original Demo)
DR9 -0.19 dB -11.56 dB 1:17 39-Romance (Demo Sketch)
DR8 -0.20 dB -9.52 dB 3:25 40-Colours (Instrumental)
DR8 -0.03 dB -9.07 dB 4:33 41-Into the Dark (Demo Remix)
--------------------------------------------------------------------------------

Number of tracks: 41
Official DR value: DR9
Samplerate: 44100 Hz
Channels: 2
Bits per sample: 24
Bitrate: 1701 kbps
Codec: FLAC
================================================================================



Comments (11)


24 may 2019
sorun2011   
0 
PR:XCityXXX GBXXX GBПостовХС
В
Л
Х

Thank you


21 march 2019
Buhodos1954   
0 
PR:XCityXXX GBXXX GBПостовХС
В
Л
Х

¡Muchas gracias!


18 march 2019
sadunshkas   
+1 
PR:XCityXXX GBXXX GBПостовХС
В
Л
Х

Thank you so much!!


17 march 2019
asimov12   
+2 
PR:XCityXXX GBXXX GBПостовХС
В
Л
Х

MUCHISIMAS GRACIAS.


17 march 2019
aleox16   
+2 
PR:XCityXXX GBXXX GBПостовХС
В
Л
Х

gracias


17 march 2019
agustsons   
+2 
PR:XCityXXX GBXXX GBПостовХС
В
Л
Х

Thanks!!!


17 march 2019
alexblog   
+2 
PR:XCityXXX GBXXX GBПостовХС
В
Л
Х

Thank you


17 march 2019
Bagdee   
+2 
PR:XCityXXX GBXXX GBПостовХС
В
Л
Х

Thank you


17 march 2019
Dave40   
+3 
PR:XCityXXX GBXXX GBПостовХС
В
Л
Х

thank you so much


17 march 2019
pjtavares   
+3 
PR:XCityXXX GBXXX GBПостовХС
В
Л
Х

Obrigado por estas maravilhosas recordações de outrora!!!


+ More
 

Similar albums

+ More
Please enable Javascript!
Пожалуйста включите Javascript, иначе данный и другие сайты могут работать не корректно! Узнать как включить Javascript можно на Google Support