Categories
Welcome to Music Torrent Tracker - Sound-Park  ι  JOIN US FOR FULL ACCESS  ι  Log In  ι  Forgot your password?

Bernard Foccroulle - Share Praetorius & Schildt: Selected Organ Works (Lossless, Hi Res 2019)

Classical
 
Bernard Foccroulle -  Share Praetorius & Schildt: Selected Organ Works (Lossless, Hi Res 2019)
Bernard Foccroulle -  Share Praetorius & Schildt: Selected Organ Works (Lossless, Hi Res 2019)
Date: 10 april 2019
Added: StasOn11
Views: 784
  • ARTIST: Bernard Foccroulle
  • ALBUM / TITLE: Share Praetorius & Schildt: Selected Organ Works
  • RELEASE YEAR / DATE: 2019
  • STYLE: Classical
  • LABEL: Ricercar
  • DURATION: 01:08:18
  • FILE FORMAT: FLAC, (tracks) 24 bits, 96 KHz
  • QUALITY: Lossless

  • RATING: 10 / 5    
  • VOTE:

  • DOWNLOAD: DOWNLOAD TORRENT
  • СИДЫ:

Torrent description



Jacob Praetorius :
01-02. Von allen Menschen abgewandt
03-11. Vater unser im Himmelreich

Melchior Schildt :
12-17. Herr Christ, der einig Gottessohn
18-22. Magnificat primi modi

Qobuz

Источник (релизер): ipokemongo


foobar2000 1.4.2 / Dynamic Range Meter 1.1.1
log date: 2019-04-08 21:43:17

--------------------------------------------------------------------------------
Analyzed: Bernard Foccroulle / Praetorius & Schildt: Selected Organ Works
--------------------------------------------------------------------------------

DR Peak RMS Duration Track
--------------------------------------------------------------------------------
DR11 -6.03 dB -18.69 dB 4:19 01-Primus versus
DR11 -12.20 dB -25.27 dB 5:15 02-[Secundus] versus
DR9 -15.84 dB -29.26 dB 3:25 03-[Versus] Manualiter a 4
DR9 -19.79 dB -31.25 dB 2:07 04-Versus [a 3, pedaliter]
DR10 -16.68 dB -29.86 dB 2:01 05-Versus [manualiter]
DR9 -13.85 dB -26.81 dB 1:38 06-Versus, Pedaliter
DR8 -21.15 dB -32.07 dB 1:49 07-Versus a 3 auff 2 Clav
DR10 -14.66 dB -27.30 dB 2:30 08-Versus auff 2 Clavir Pedaliter
DR10 -10.53 dB -23.81 dB 2:58 09-Versus, Pedaliter (II)
DR9 -16.86 dB -29.97 dB 1:57 10-Praeambulum [F Dur]
DR11 -12.44 dB -26.96 dB 10:56 11-[Fantasia sopra] Durch Adams Fall ist ganz verderbt
DR10 -13.64 dB -25.82 dB 2:08 12-[I. Versus] a 4 midt dem pedahll vnndt 2 Clauier
DR10 -12.21 dB -24.49 dB 1:56 13-[II. Versus] a 3 Manual oder dem Co[rahll] im ped[ahll]
DR10 -18.26 dB -32.53 dB 2:21 14-[III. Versus] a 4, pedal
DR8 -17.95 dB -28.15 dB 1:49 15-IV. Vers[us] a 3, Corahll im Bass
DR10 -16.02 dB -28.25 dB 1:57 16-[V. Versus] a 3
DR9 -16.88 dB -27.95 dB 1:36 17-Praeambulum [G Dur]
DR10 -5.22 dB -17.89 dB 1:43 18-[I. Versus] Choral im Tenore
DR11 -10.59 dB -25.50 dB 8:45 19-II. Versus, Auff 2 Clavier
DR9 -13.38 dB -25.43 dB 4:00 20-Tertius Versus, a 4 Voc.
DR10 -15.89 dB -27.88 dB 1:44 21-Quartus Versus, a 3 Voc., [Choralis] in Tenore
DR10 -12.65 dB -24.79 dB 1:33 22-Quintus Versus [a 3]
--------------------------------------------------------------------------------

Number of tracks: 22
Official DR value: DR10

Samplerate: 96000 Hz
Channels: 2
Bits per sample: 24
Bitrate: 2417 kbps
Codec: FLAC
================================================================================



Comments (3)


13 april 2019
HATRIK   
0 
PR:XCityXXX GBXXX GBПостовХС
В
Л
Х

ДЯКУЮ!!!


11 april 2019
rotihellas   
0 
PR:XCityXXX GBXXX GBПостовХС
В
Л
Х

Thanks!!


10 april 2019
Bagdee   
0 
PR:XCityXXX GBXXX GBПостовХС
В
Л
Х

Thank you



 

Please enable Javascript!
Пожалуйста включите Javascript, иначе данный и другие сайты могут работать не корректно! Узнать как включить Javascript можно на Google Support