Categories
Welcome to Music Torrent Tracker - Sound-Park  ι  JOIN US FOR FULL ACCESS  ι  Log In  ι  Forgot your password?

Khatia Buniatishvili - Schubert (Lossless, Hi Res 2019)

Classical  Solo Instruments
 
Date: 10 april 2019
Added: StasOn11
Views: 1184
  • ARTIST: Khatia Buniatishvili
  • ALBUM / TITLE: Schubert
  • RELEASE YEAR / DATE: 2019
  • STYLE: Classical, Piano
  • LABEL: Sony Classical
  • DURATION: 01:23:29
  • FILE FORMAT: FLAC, (tracks) 24 bits, 96 KHz
  • QUALITY: Lossless

  • RATING: 10 / 4    
  • VOTE:

  • DOWNLOAD: DOWNLOAD TORRENT
  • СИДЫ:

Torrent description



Franz Schubert (1797 - 1828)
Piano Sonata No. 21 in B-Flat Major, D. 960
01. I. Molto moderato
02. II. Andante sostenuto
03. III. Scherzo - Allegro vivace con delicatezza
04. IV. Allegro ma non troppo

4 Impromptus, Op. 90, D. 899
05. No. 1 in C Minor
06. No. 2 in E-Flat Major
07. No. 3 in G-Flat Major
08. No. 4 in A-Flat Major

09. Ständchen, S. 560 (Piano transcription S 560/7 by Franz Liszt, after D 957/4)

Prestomusic

Источник (релизер): Stephenten

Khatia Buniatishvili’s first Schubert recording includes Schubert’s great last Piano Sonata (D 960), the 4 popular Impromptus and Ständchen (arr.by Liszt). Khatia will be performing the repertoire on a worldwide tour, including London’s Barbican on 1st April. Khatia is one of the today’s leading classical pianists, having performed at the most prestigious venues and events including New York’s Carnegie Hall, the BBC Proms at the London’s iconic Royal Albert Hall and Salzburg Festival. Gramophone noted of the critically acclaimed pianist’s previous recordings “Buniatishvili produces the most ravishing, velvet-toned pianissimo” (‘Motherland’) and “Right from the concerto’s opening moments, there’s tremendous power to Buniatishvili’s playing, and her massive technique overcomes every hurdle with ease.” (‘Rachmaninoff’).


foobar2000 1.4 / Dynamic Range Meter 1.1.1
log date: 2019-03-15 22:29:33

--------------------------------------------------------------------------------
Analyzed: Khatia Buniatishvili/Maximilien Ciup/Maximilien Ciup/Maximilien Ciup / Schubert (1-5)
Khatia Buniatishvili/Maximilien Ciup/Maximilien Ciup / Schubert (6-9)
--------------------------------------------------------------------------------

DR Peak RMS Duration Track
--------------------------------------------------------------------------------
DR18 -0.30 dB -24.88 dB 20:34 01-Piano Sonata No. 21 in B-Flat Major, D. 960: I. Molto moderato
DR17 -9.37 dB -32.48 dB 14:32 02-Piano Sonata No. 21 in B-Flat Major, D. 960: II. Andante sostenuto
DR13 -7.84 dB -25.26 dB 3:45 03-Piano Sonata No. 21 in B-Flat Major, D. 960: III. Scherzo - Allegro vivace con delicatezza
DR13 -0.30 dB -19.32 dB 8:33 04-Piano Sonata No. 21 in B-Flat Major, D. 960: IV. Allegro ma non troppo
DR16 -5.39 dB -27.86 dB 7:22 09-Ständchen - Leise flehen meine Lieder (S559a, after Schubert): Ständchen, S. 560 (Trans. from Schwanengesang No. 4, D. 957)
DR16 -0.81 dB -23.47 dB 11:10 05-4 Impromptus, Op. 90, D. 899: No. 1 in C Minor
DR13 -1.75 dB -20.93 dB 4:09 06-4 Impromptus, Op. 90, D. 899: No. 2 in E-Flat Major
DR15 -6.71 dB -28.18 dB 6:18 07-4 Impromptus, Op. 90, D. 899: No. 3 in G-Flat Major
DR13 -3.66 dB -22.65 dB 7:05 08-4 Impromptus, Op. 90, D. 899: No. 4 in A-Flat Major
--------------------------------------------------------------------------------

Number of tracks: 9
Official DR value: DR15
Samplerate: 96000 Hz
Channels: 2
Bits per sample: 24
Bitrate: 1759 kbps
Codec: FLAC
================================================================================



Comments (1)


10 april 2019
Bagdee   
0 
PR:XCityXXX GBXXX GBПостовХС
В
Л
Х

Thank you



 

Please enable Javascript!
Пожалуйста включите Javascript, иначе данный и другие сайты могут работать не корректно! Узнать как включить Javascript можно на Google Support