Categories
Welcome to Music Torrent Tracker - Sound-Park  ι  JOIN US FOR FULL ACCESS  ι  Log In  ι  Forgot your password?

Cosmograf - Mind Over Depth (Lossless, Hi Res 2019)

Progressive Rock
 
Date: 13 april 2019
Added: StasOn11
Views: 2501
  • ARTIST: Cosmograf
  • ALBUM / TITLE: Mind Over Depth
  • RELEASE YEAR / DATE: 2019
  • COUNTRY: United Kingdom
  • STYLE: Neo-Prog
  • DURATION: 00:45:33
  • FILE FORMAT: FLAC, (tracks) 24 bits, 96 KHz
  • QUALITY: Lossless
  • Site: cosmograf.com

  • RATING: 10 / 6    
  • VOTE:

  • DOWNLOAD: DOWNLOAD TORRENT
  • СИДЫ:

Torrent description



01. A Million Choices 11:49
02. Godspeed 09:06
03. The Smoke And The Flame 06:49
04. Sharks 08:17
05. Goodbye To All Illusions 09:29

Вandcamp

Источник (релизер): Vknish

Robin Armstrong - Vocals, Guitars. Keyboards, Bass (Tracks 3,4,5)
Colin Edwin - Bass (Tracks1,2)
Kyle Fenton - Drums, Backing Vocals



foobar2000 1.3.19 / Замер динамического диапазона (DR) 1.1.1
Дата отчёта: 2019-04-12 05:10:10

--------------------------------------------------------------------------------
Анализ: Cosmograf / Mind Over Depth
--------------------------------------------------------------------------------

DR Пики RMS Продолжительность трека
--------------------------------------------------------------------------------
DR12 -0.20 дБ -13.53 дБ 11:50 01-A Million Choices
DR11 -0.20 дБ -13.04 дБ 9:06 02-Godspeed
DR12 -0.20 дБ -14.61 дБ 6:50 03-The Smoke And The Flame
DR11 -0.20 дБ -14.40 дБ 8:17 04-Sharks
DR12 -0.20 дБ -15.38 дБ 9:30 05-Goodbye To All Illusions
--------------------------------------------------------------------------------

Количество треков: 5
Реальные значения DR: DR11

Частота: 96000 Гц
Каналов: 2
Разрядность: 24
Битрейт: 2700 кбит/с
Кодек: FLAC



Comments (3)


15 april 2019
lanavarro66   
0 
PR:XCityXXX GBXXX GBПостовХС
В
Л
Х

great


15 april 2019
agustsons   
0 
PR:XCityXXX GBXXX GBПостовХС
В
Л
Х

Thanks!!!


13 april 2019
Bagdee   
0 
PR:XCityXXX GBXXX GBПостовХС
В
Л
Х

Thank you



 

Similar albums

+ More
Please enable Javascript!
Пожалуйста включите Javascript, иначе данный и другие сайты могут работать не корректно! Узнать как включить Javascript можно на Google Support