Categories
Welcome to Music Torrent Tracker - Sound-Park  ι  JOIN US FOR FULL ACCESS  ι  Log In  ι  Forgot your password?

Evgeny Kissin & Emerson Quartet - The New York Concert (lossless, 2019)

Classical
 
Date: 14 april 2019
Added: StasOn11
Views: 775
  • ARTIST: Evgeny Kissin & Emerson Quartet
  • ALBUM / TITLE: The New York Concert: Mozart · Fauré · Dvořák
  • RELEASE YEAR / DATE: 2019
  • STYLE: Classical
  • LABEL: Deutsche Grammphon
  • DURATION: 01:38:53
  • FILE FORMAT: FLAC, (tracks) 24 bits, 96 KHz
  • QUALITY: Lossless

  • RATING: 10 / 3    
  • VOTE:

  • DOWNLOAD: DOWNLOAD TORRENT
  • СИДЫ:

Torrent description



Wolfgang Amadeus Mozart (1756 - 1791)
Piano Quartet No. 1 in G Minor, K. 478
01. 1. Allegro
02. 2. Andante
03. 3. Rondo

Gabriel Fauré (1845 - 1924)
Piano Quartet No. 1 in C minor, Op. 15
04. 1. Allegro molto moderato
05. 2. Scherzo (Allegro vivo)
06. 3. Adagio
07. 4. Allegro molto

Antonín Dvořák (1841 - 1904)
Piano Quintet in A Major, Op. 81, B. 155
08. 1. Allegro, ma non tanto
09. 2. Dumka (Andante con moto)
10. 3. Scherzo (Furiant). Molto vivace (Poco tranquillo)
11. 4. Finale (Allegro)

Dmitri Shostakovich (1906 - 1975)
Piano Quintet in G Minor, Op. 57
12. 3. Scherzo (Allegretto)

Prestomusic

Источник (релизер): Stephenten

Pianist Evgeny Kissin is teaming up with Emerson String Quartet for a chamber music live recording from sold out Carnegie Hall, in April 2018.
A super star fusion of musicians performing mesmerizing repertoire: an exquisite Fauré, a stormy Mozart and a sweepingly sensual Dvořák.
This is a rare moment in which one of the world’s most acclaimed pianists can be witnessed as a chamber musician. Thus, this recording,
presenting Kissin and the ESQ performing chamber music repertoire, constitutes a novelty in DG’s catalogue.
With 9 Grammy Awards and 3 Gramophone Awards to date, the Emerson String Quartet bestrides the world of chamber music like a colossus.
They are without a question among the world’s most impressive string quartets and, founded in 1976, playing today as passionate and inquisitive as ever.
The idea to play together, reaches back a couple of years, and has been immediately embraced enthusiastically by all five musicians.
They then went on a tour including concerts in Paris, Munich, Vienna, Boston and New York in 2018.

Evgeny Kissin, piano
Emerson Quartet



foobar2000 1.4 / Dynamic Range Meter 1.1.1
log date: 2019-04-12 05:49:15

--------------------------------------------------------------------------------
Analyzed: Evgeny Kissin / The New York Concert
--------------------------------------------------------------------------------

DR Peak RMS Duration Track
--------------------------------------------------------------------------------
DR14 -0.80 dB -19.77 dB 10:57 01-1. Allegro
DR15 -4.37 dB -24.11 dB 7:42 02-2. Andante
DR16 -0.80 dB -20.92 dB 7:55 03-3. Rondo (Allegro moderato)
DR14 -0.80 dB -19.89 dB 9:24 04-1. Allegro molto moderato
DR14 -0.80 dB -20.84 dB 5:29 05-2. Scherzo (Allegro vivo)
DR14 -1.79 dB -23.85 dB 8:10 06-3. Adagio
DR14 -0.80 dB -18.35 dB 8:04 07-4. Allegro molto
DR12 -0.80 dB -17.31 dB 10:26 08-1. Allegro, ma non tanto
DR16 -0.80 dB -22.33 dB 15:30 09-2. Dumka (Andante con moto)
DR15 -0.80 dB -20.05 dB 4:09 10-3. Scherzo (Furiant). Molto vivace (Poco tranquillo)
DR13 -0.80 dB -18.29 dB 7:28 11-4. Finale (Allegro)
DR12 -0.80 dB -16.28 dB 3:41 12-3. Scherzo (Allegretto)
--------------------------------------------------------------------------------

Number of tracks: 12
Official DR value: DR14
Samplerate: 96000 Hz
Channels: 2
Bits per sample: 24
Bitrate: 2538 kbps
Codec: FLAC
================================================================================



Comments (3)


19 april 2019
edkarlos   
0 
PR:XCityXXX GBXXX GBПостовХС
В
Л
Х

angelic is the classic music ... the best of the best
Muchas Gracias


14 april 2019
alsoundbel   
0 
PR:XCityXXX GBXXX GBПостовХС
В
Л
Х

muchas gracias


14 april 2019
Bagdee   
0 
PR:XCityXXX GBXXX GBПостовХС
В
Л
Х

Thank you



 

Please enable Javascript!
Пожалуйста включите Javascript, иначе данный и другие сайты могут работать не корректно! Узнать как включить Javascript можно на Google Support