Categories
Welcome to Music Torrent Tracker - Sound-Park  ι  JOIN US FOR FULL ACCESS  ι  Log In  ι  Forgot your password?

Prague Sinfonia Orchestra & Christian Benda - Mozart : Salieri (Lossless, Hi Res 2019)

Classical  Vocals
 
Date: 14 april 2019
Added: StasOn11
Views: 655
  • ARTIST: Dagmar Williams, Dagmar Williams, Prague Sinfonia Orchestra, Christian Benda
  • ALBUM / TITLE: Mozart : Salieri
  • RELEASE YEAR / DATE: 2019
  • STYLE: Classical, Vocal
  • LABEL: Sony Classical
  • DURATION: 02:06:03
  • FILE FORMAT: FLAC, (tracks) 24 bits, 96 KHz
  • QUALITY: Lossless

  • RATING: 10 / 3    
  • VOTE:

  • DOWNLOAD: DOWNLOAD TORRENT
  • СИДЫ:

Torrent description



Wolfgang Amadeus Mozart (1756-1791)
01. Don Giovanni, K. 527: Overture

Antonio Salieri (1750-1825)
02. Prima la musica, poi le parole: Sinfonia

Wolfgang Amadeus Mozart
03. Der Schauspieldirektor, K. 486: Overture

Antonio Salieri
04. La fiera di Venezia: Sinfonia

Wolfgang Amadeus Mozart
05. Die Zauberflöte, K. 620: Overture

Antonio Salieri
06. Les Danaïdes: Overture

Wolfgang Amadeus Mozart
Symphony No. 38 in D Major, K. 504 "Prague"
07. I. Adagio - Allegro
08. II. Andante
09. III. Finale. Presto
10. Le nozze di Figaro, K. 492: Overture

Antonio Salieri
11. Axur re d'Ormus: Sinfonia

Wolfgang Amadeus Mozart
12. La clemenza di Tito, K. 621: Overture

Antonio Salieri
13. Palmira, regina di Persia: Overture

Wolfgang Amadeus Mozart
Six German Dances, K. 509
14. No. 1 in D Major
15. No. 2 in G Major
16. No. 3 in E-Flat Major
17. No. 4 in F Major
18. No. 5 in A Major
19. No. 6 in C Major

Salieri, Mozart, Cornetti
Per la ricuperata salute di Ofelia, K. 477a
20. I. Andante pastorale
21. II. Andante
22. III. Larghetto

Wolfgang Amadeus Mozart
23. Die Entführung aus dem Serail, K. 384: Overture

Symphony No. 35 in D major, K385 'Haffner'
24. I. Allegro con spirito
25. II. Andante
26. III. Menuetto. Trio
27. IV. Finale. Presto

Prestomusic

Источник (релизер): Stephenten

Mozart und Salieri - waren sie erbitterte Feinde oder respektierten sie sich gegenseitig als Komponisten? Wahrscheinlich ist eher das Letztere der Fall. Ein Ort, an dem die zwei Musiker - neben Wien - ihre Werke einem musikhungrigen Publikum präsentierten, war die böhmische Metropole Prag. Mit ein Grund für das Prague Sinfonia Orchestra unter der Leitung von Christian Benda, einen Querschnitt durch das sinfonische Schaffen der beiden Komponisten zu präsentieren. Neben zahlreichen Opern-Ouvertüren gibt es die komplette "Prager-" sowie die "Haffner-Sinfonie" von Mozart. Das interessanteste Werk dürfte aber zweifelsohne die Kantate "Per la ricuperata salute di Ofelia" von 1785 sein. Bei diesem Werk handelt es sich um eine Gemeinschaftskomposition von Antonio Salieri, Wolfgang Amadeus Mozart und einem gewissen "Cornetti" auf einen Text von Lorenzo da Ponte. Die zur Wiedergenesung der italienisch-englischen Sängerin Nancy Storace geschriebene Kantate für Singstimme und Klavier gilt als wichtigster Beleg für ein eher freundschaftlich-kollegiales Verhältnis der Komponisten Salieri und Mozart. Wer sich hinter dem Namen "Cornetti" verbirgt, ist bis heute nicht geklärt. Vermutlich handelt es sich um ein Pseudonym. Der Titel des Werkes spielt auf die Rolle der Ofelia in Salieris "La grotta di Trofonio" an, in welcher die Storace 1785 nach ihrer Genesung wahre Triumphe feierte. Die Existenz des Werkes war nur durch zeitgenössische Zeitungsannoncen im Wienerblättchen und in der Wiener Realzeitung belegt, in denen das Werk vom Wiener Verlag Artaria beworben wurde. Sowohl der Text als auch die Musik galten als verschollen, bis der deutsche Komponist und Musikwissenschaftler Timo Jouko Herrmann im Dezember 2015 in den Sammlungen des Nationalmuseums in Prag eine bei Joseph von Kurzböck gedruckte Ausgabe ausfindig machen konnte. Das ursprünglich für Sopran und Tasteninstrument geschriebene Werk erklingt auf dem vorliegenden Doppel-Album in einer vom Cellisten und Dirigenten Christian Benda erstellen Version für Sopran (es singt Dagmar Williams vom Philharmonischen Chor Prag) und Orchester. Welt-Ersteinspielung!

Dagmar Williams, soprano
Prague Sinfonia Orchestra
Christian Benda, conductor




foobar2000 1.4 / Dynamic Range Meter 1.1.1
log date: 2019-04-05 17:31:47

--------------------------------------------------------------------------------
Analyzed: Prague Sinfonia Orchestra / Mozart versus Salieri
--------------------------------------------------------------------------------

DR Peak RMS Duration Track
--------------------------------------------------------------------------------
DR12 -0.10 dB -16.05 dB 5:46 01-Don Giovanni, K. 527: Overture
DR13 -0.10 dB -16.93 dB 2:22 02-Prima la musica, poi le parole: Sinfonia
DR12 -0.10 dB -16.39 dB 3:44 03-Der Schauspieldirektor, K. 486: Overture
DR13 -0.10 dB -17.17 dB 6:19 04-La fiera di Venezia: Sinfonia
DR10 -0.10 dB -14.73 dB 6:13 05-Die Zauberflöte, K. 620: Overture
DR10 -0.11 dB -14.95 dB 5:37 06-Les Danaïdes: Overture
DR10 -0.10 dB -14.80 dB 15:38 07-I. Adagio - Allegro
DR15 -0.13 dB -22.06 dB 9:35 08-II. Andante
DR11 -0.10 dB -14.95 dB 7:25 09-III. Finale. Presto
DR12 -0.10 dB -15.57 dB 4:13 10-Le nozze di Figaro, K. 492: Overture
DR10 -0.10 dB -14.18 dB 3:01 11-Axur re d'Ormus: Sinfonia
DR13 -0.10 dB -17.00 dB 4:14 12-La clemenza di Tito, K. 621: Overture
DR13 -0.34 dB -17.35 dB 3:09 13-Palmira, regina di Persia: Overture
DR14 -0.10 dB -18.47 dB 1:57 14-No. 1 in D Major
DR12 -2.51 dB -17.45 dB 1:51 15-No. 2 in G Major
DR10 -0.10 dB -13.16 dB 1:44 16-No. 3 in E-Flat Major
DR11 -2.22 dB -18.24 dB 1:57 17-No. 4 in F Major
DR12 -0.10 dB -16.35 dB 2:41 18-No. 5 in A Major
DR10 -0.10 dB -13.36 dB 3:38 19-No. 6 in C Major
DR13 -0.10 dB -17.93 dB 3:25 20-Per la ricuperata salute di Ofelia, K. 477a: I. Andante pastorale
DR12 -0.10 dB -15.87 dB 1:38 21-Per la ricuperata salute di Ofelia, K. 477a: II. Andante
DR12 -0.10 dB -16.83 dB 1:38 22-Per la ricuperata salute di Ofelia, K. 477a: III. Larghetto
DR10 -0.10 dB -14.62 dB 6:17 23-Die Entführung aus dem Serail, K. 384: Overture
DR9 -0.10 dB -13.19 dB 5:33 24-I. Allegro con spirito
DR14 -4.22 dB -22.89 dB 9:34 25-II. Andante
DR11 -0.10 dB -15.91 dB 3:27 26-III. Menuetto. Trio
DR8 -0.10 dB -13.07 dB 3:39 27-IV. Finale. Presto
--------------------------------------------------------------------------------

Number of tracks: 27
Official DR value: DR12
Samplerate: 96000 Hz
Channels: 2
Bits per sample: 24
Bitrate: 2651 kbps
Codec: FLAC
================================================================================



Comments (1)


14 april 2019
Bagdee   
0 
PR:XCityXXX GBXXX GBПостовХС
В
Л
Х

Thank you



 

Please enable Javascript!
Пожалуйста включите Javascript, иначе данный и другие сайты могут работать не корректно! Узнать как включить Javascript можно на Google Support