Categories
Welcome to Music Torrent Tracker - Sound-Park  ι  JOIN US FOR FULL ACCESS  ι  Log In  ι  Forgot your password?

Purcell Choir & Gyorgy Vashegyi - Stolze (Lossless, Hi Res 2019)

Classical
 
Purcell Choir & Gyorgy Vashegyi - Stolze (Lossless, Hi Res 2019)
Purcell Choir & Gyorgy Vashegyi - Stolze (Lossless, Hi Res 2019)
Date: 14 april 2019
Added: StasOn11
Views: 667
  • ARTIST: Purcell Choir & György Vashegyi
  • ALBUM / TITLE: Stölzel: Ein Lämmlein geht und trägt die Schuld
  • RELEASE YEAR / DATE: 2019
  • STYLE: Classical
  • LABEL: Glossa
  • DURATION: 00:58:15
  • FILE FORMAT: FLAC, (tracks) 24 bits, 48 KHz
  • QUALITY: Lossless

  • RATING: 10 / 4    
  • VOTE:

  • DOWNLOAD: DOWNLOAD TORRENT
  • СИДЫ:

Torrent description



01-40. Stölzel: Ein Lämmlein geht und trägt die Schuld (Passionsoratorium) 58:13

Prestomusic

Источник (релизер): ipokemongo



foobar2000 1.4.2 / Dynamic Range Meter 1.1.1
log date: 2019-04-09 11:39:36

--------------------------------------------------------------------------------
Analyzed: Agnes Kovacs / Stölzel: Ein Lämmlein geht und trägt die Schuld (1-5)
Lóránt Najbauer / Stölzel: Ein Lämmlein geht und trägt die Schuld (6-14)
Peter Barany / Stölzel: Ein Lämmlein geht und trägt die Schuld (15-18)
Purcell Choir / Stölzel: Ein Lämmlein geht und trägt die Schuld (19-32)
Zoltan Megyesi / Stölzel: Ein Lämmlein geht und trägt die Schuld (33-40)
--------------------------------------------------------------------------------

DR Peak RMS Duration Track
--------------------------------------------------------------------------------
DR11 -7.11 dB -24.94 dB 1:13 02-Ein Lämmlein geht und trägt die Schuld, Pt. 1: No. 2, Wohin ist doch mein Freund gegangen?
DR11 -1.90 dB -23.81 dB 0:55 12-Ein Lämmlein geht und trägt die Schuld, Pt. 1: No. 12, Auch ich mein Jesu, fliehe oft von dir
DR14 -3.06 dB -21.80 dB 3:45 13-Ein Lämmlein geht und trägt die Schuld, Pt. 1: No. 13, Hirte, der aus Liebe stirbt
DR14 -3.60 dB -22.51 dB 1:11 34-Ein Lämmlein geht und trägt die Schuld, Pt. 2: No. 34, So treibet dein Erbarmen, mein Jesu
DR14 -2.85 dB -21.39 dB 2:57 35-Ein Lämmlein geht und trägt die Schuld, Pt. 2: No. 35, Hier an diesem Kreuzes Stamm
DR12 -5.37 dB -23.72 dB 1:10 09-Ein Lämmlein geht und trägt die Schuld, Pt. 1: No. 9, Ach, treuer Seelenarzt
DR11 -5.83 dB -19.99 dB 2:26 10-Ein Lämmlein geht und trägt die Schuld, Pt. 1: No. 10, Herr und Meister in dem Helfen
DR13 -2.97 dB -22.38 dB 1:10 15-Ein Lämmlein geht und trägt die Schuld, Pt. 1: No. 15, Ach, dass ihr Augen Quellen wäret
DR12 -2.52 dB -18.56 dB 1:12 16-Ein Lämmlein geht und trägt die Schuld, Pt. 1: No. 16, Mein nagendes Gewissen
DR12 -6.04 dB -23.12 dB 0:52 21-Ein Lämmlein geht und trägt die Schuld, Pt. 2: No. 21, Kannst du, o Mittler zwischen Gott und mir
DR15 -2.99 dB -22.18 dB 3:29 22-Ein Lämmlein geht und trägt die Schuld, Pt. 2: No. 22, Allerhöchster Gottes Sohn
DR13 -4.33 dB -21.86 dB 0:53 27-Ein Lämmlein geht und trägt die Schuld, Pt. 2: No. 27, Der Mörder Barrabas geht frei aus seinen Banden
DR14 -3.35 dB -22.78 dB 2:38 28-Ein Lämmlein geht und trägt die Schuld, Pt. 2: No. 28, Meine Sünden heißen dich, Seelenfreund
DR13 -8.75 dB -25.66 dB 1:06 30-Ein Lämmlein geht und trägt die Schuld, Pt. 2: No. 30, Nun führen sie den Herrn nach Golgatha
DR12 -7.76 dB -25.16 dB 0:48 06-Ein Lämmlein geht und trägt die Schuld, Pt. 1: No. 6, Mein Jesu, soll dich der
DR13 -5.63 dB -21.88 dB 2:23 07-Ein Lämmlein geht und trägt die Schuld, Pt. 1: No. 7, Darf ich der falschen Welt nicht trauen
DR12 -5.46 dB -21.02 dB 0:36 24-Ein Lämmlein geht und trägt die Schuld, Pt. 2: No. 24, O unerhörte Wut, o blutiges Verlangen
DR13 -4.41 dB -21.94 dB 3:08 25-Ein Lämmlein geht und trägt die Schuld, Pt. 2: No. 25, Haltet ein ihr Mörderklauen
DR12 -3.10 dB -18.79 dB 1:34 01-Ein Lämmlein geht und trägt die Schuld, Pt. 1: No. 1, Ein Lämmlein geht und trägt die Schuld
DR11 -0.56 dB -19.05 dB 1:05 05-Ein Lämmlein geht und trägt die Schuld, Pt. 1: No. 5, Nun Herr, was du erduldet
DR10 -1.58 dB -19.06 dB 0:47 08-Ein Lämmlein geht und trägt die Schuld, Pt. 1: No. 8, Wenn die Welt mit ihren Netzen
DR12 -4.23 dB -19.40 dB 0:52 11-Ein Lämmlein geht und trägt die Schuld, Pt. 1: No. 11, Ein Arzt ist uns gegeben
DR11 -0.58 dB -16.55 dB 0:36 14-Ein Lämmlein geht und trägt die Schuld, Pt. 1: No. 14, Ich lass dich nicht
DR11 -0.55 dB -17.29 dB 0:37 17-Ein Lämmlein geht und trägt die Schuld, Pt. 1: No. 17, Ach, was soll ich Sünder machen
DR12 -1.73 dB -18.76 dB 0:46 20-Ein Lämmlein geht und trägt die Schuld, Pt. 2: No. 20, Die Welt bekümmert sich
DR10 -2.96 dB -18.26 dB 0:52 23-Ein Lämmlein geht und trägt die Schuld, Pt. 2: No. 23, O, Jesu Christ, Sohn eingeborn
DR12 -0.59 dB -18.06 dB 0:36 26-Ein Lämmlein geht und trägt die Schuld, Pt. 2: No. 26, Wie wunderbarlich ist doch dieser Strafe
DR11 -7.72 dB -23.34 dB 0:45 29-Ein Lämmlein geht und trägt die Schuld, Pt. 2: No. 29, Ach ich und meine Sünden
DR11 -3.19 dB -18.69 dB 0:25 33-Ein Lämmlein geht und trägt die Schuld, Pt. 2: No. 33, Drum will ich, weil ich lebe noch
DR10 -0.55 dB -16.72 dB 0:40 36-Ein Lämmlein geht und trägt die Schuld, Pt. 2: No. 36, O Lamm Gottes ohne Schuld
DR14 -3.22 dB -23.38 dB 1:27 38-Ein Lämmlein geht und trägt die Schuld, Pt. 2: No. 38, Mein Jesus stirbt
DR9 -2.32 dB -22.69 dB 0:50 40-Ein Lämmlein geht und trägt die Schuld, Pt. 2: No. 40, O Jesu du, mein' Hülf und Ruh'
DR13 -6.44 dB -23.76 dB 0:43 03-Ein Lämmlein geht und trägt die Schuld, Pt. 1: No. 3, O, Anblick voller Schmerz und Weh
DR14 -3.82 dB -22.96 dB 3:56 04-Ein Lämmlein geht und trägt die Schuld, Pt. 1: No. 4, Ach wo nehm' ich Tränen her
DR15 -7.50 dB -25.45 dB 0:45 18-Ein Lämmlein geht und trägt die Schuld, Pt. 2: No. 18, Ach, unbeflecktes Gotteslamm
DR14 -5.78 dB -23.40 dB 1:20 19-Ein Lämmlein geht und trägt die Schuld, Pt. 2: No. 19, Ich will schweigen
DR14 -2.69 dB -23.62 dB 0:52 31-Ein Lämmlein geht und trägt die Schuld, Pt. 2: No. 31, Mein Heiland, sieh', ich stell' mich willig ein
DR15 -5.09 dB -23.73 dB 4:02 32-Ein Lämmlein geht und trägt die Schuld, Pt. 2: No. 32, Dein Kreuz, o, Bräut'gam meiner Seelen
DR11 -9.18 dB -27.39 dB 1:06 37-Ein Lämmlein geht und trägt die Schuld, Pt. 2: No. 37, Mein Heiland spricht zuletzt. Es ist vollbracht
DR13 -4.02 dB -22.32 dB 2:03 39-Ein Lämmlein geht und trägt die Schuld, Pt. 2: No. 39, Kommt Menschen, kommt, kommt
--------------------------------------------------------------------------------

Number of tracks: 40
Official DR value: DR12

Samplerate: 48000 Hz
Channels: 2
Bits per sample: 24
Bitrate: 1393 kbps
Codec: FLAC
================================================================================



Comments (3)


19 april 2019
rotihellas   
0 
PR:XCityXXX GBXXX GBПостовХС
В
Л
Х

Thanks!


19 april 2019
edkarlos   
0 
PR:XCityXXX GBXXX GBПостовХС
В
Л
Х

muchas gracias nobre Amigo...


14 april 2019
Bagdee   
0 
PR:XCityXXX GBXXX GBПостовХС
В
Л
Х

Thank you



 

Please enable Javascript!
Пожалуйста включите Javascript, иначе данный и другие сайты могут работать не корректно! Узнать как включить Javascript можно на Google Support