Categories
Welcome to Music Torrent Tracker - Sound-Park  ι  JOIN US FOR FULL ACCESS  ι  Log In  ι  Forgot your password?

Gore Tech - Geist Fibre (Lossless, Hi Res 2019)

Drum n Bass  Noise  Techno
 
Date: 14 april 2019
Added: StasOn11
Views: 1268
  • ARTIST: Gore Tech
  • ALBUM / TITLE: Geist Fibre
  • RELEASE YEAR / DATE: 2019
  • COUNTRY: United Kingdom (Manchester)
  • STYLE: Drum & Bass, Noise, Techno
  • LABEL: Ohm Resistance
  • DURATION: 00:54:18
  • FILE FORMAT: FLAC, (tracks) 24 bits, 44,1 KHz
  • QUALITY: Lossless
  • Site: gore-tech.net

  • RATING: 10 / 7    
  • VOTE:

  • DOWNLOAD: DOWNLOAD TORRENT
  • СИДЫ:

Torrent description



1. Black Sun
2. Hunter
3. Badlock
4. Division
5. Widow System
6. Pathogen Slumber
7. Proximity Shift (Original Mix)
8. War-ware
9. Net Terminal Gene
10. Thermoptics
11. Ghostcode
12. Dawn Marker

Bandcamp

Источник (релизер): Ashley_Riot


foobar2000 1.3.17 / Замер динамического диапазона (DR) 1.1.1
Дата отчёта: 2019-04-14 14:38:42

--------------------------------------------------------------------------------
Анализ: Gore Tech / Geist Fibre
--------------------------------------------------------------------------------

DR Пики RMS Продолжительность трека
--------------------------------------------------------------------------------
DR6 -1.11 дБ -9.23 дБ 2:28 01-Black Sun
DR4 0.00 дБ -6.41 дБ 5:26 02-Hunter
DR4 0.00 дБ -6.68 дБ 4:19 03-Badlock
DR3 0.00 дБ -3.95 дБ 6:40 04-Division
DR6 0.00 дБ -8.86 дБ 4:07 05-Widow System
DR3 -0.11 дБ -6.52 дБ 3:58 06-Pathogen Slumber
--------------------------------------------------------------------------------

Количество треков: 6
Реальные значения DR: DR4

Частота: 44100 Гц
Каналов: 2
Разрядность: 24
Битрейт: 1591 кбит/с
Кодек: FLAC
================================================================================

--------------------------------------------------------------------------------
Статистика для: 07-Proximity Shift (Original Mix)
Количество сэмплов: 15967193
Продолжительность: 6:02
--------------------------------------------------------------------------------

Левый Правый

Пики: 0.00 дБ --- 0.00 дБ
Средний RMS: -6.66 дБ --- -6.73 дБ
DR канала: 3.96 дБ --- 3.93 дБ
--------------------------------------------------------------------------------

Реальные значения DR: DR4

Частота: 44100 Гц
Каналов: 2
Разрядность: 16
Битрейт: 1060 кбит/с
Кодек: FLAC
================================================================================
--------------------------------------------------------------------------------
Анализ: Gore Tech / Geist Fibre
--------------------------------------------------------------------------------

DR Пики RMS Продолжительность трека
--------------------------------------------------------------------------------
DR1 -0.09 дБ -2.75 дБ 5:18 08-War-ware
DR3 -0.16 дБ -5.09 дБ 3:25 09-Net Terminal Gene
DR3 -0.11 дБ -5.76 дБ 7:30 10-Thermoptics
DR6 -0.09 дБ -7.73 дБ 2:56 11-Ghostcode
DR3 -0.07 дБ -6.62 дБ 2:13 12-Dawn Marker
--------------------------------------------------------------------------------

Количество треков: 5
Реальные значения DR: DR3

Частота: 44100 Гц
Каналов: 2
Разрядность: 24
Битрейт: 1319 кбит/с
Кодек: FLAC
================================================================================



Comments (5)


23 may 2019
Dron22   
0 
PR:XCityXXX GBXXX GBПостовХС
В
Л
Х

10/10 спс+


18 april 2019
TIGRE-322   
0 
PR:XCityXXX GBXXX GBПостовХС
В
Л
Х

gracias hermano


15 april 2019
necs   
0 
PR:XCityXXX GBXXX GBПостовХС
В
Л
Х

Вещь!!!


15 april 2019
Fransisko   
0 
PR:XCityXXX GBXXX GBПостовХС
В
Л
Х

Thanks


15 april 2019
Bagdee   
0 
PR:XCityXXX GBXXX GBПостовХС
В
Л
Х

Thank you



 

Similar albums

Please enable Javascript!
Пожалуйста включите Javascript, иначе данный и другие сайты могут работать не корректно! Узнать как включить Javascript можно на Google Support