Categories
Welcome to Music Torrent Tracker - Sound-Park  ι  JOIN US FOR FULL ACCESS  ι  Log In  ι  Forgot your password?

Plume - Escaping The Dark Side (Lossless, Hi Res 2019)

Jazz  Bop
 
Date: 16 april 2019
Added: StasOn11
Views: 1568
  • ARTIST: Plume
  • ALBUM / TITLE: Escaping The Dark Side
  • RELEASE YEAR / DATE: 2019
  • COUNTRY: United States
  • STYLE: Contemporary Jazz, Post-Bop
  • LABEL: Jazz & People
  • DURATION: 00:49:22
  • FILE FORMAT: FLAC, (tracks) 24 bits, 44,1 KHz
  • QUALITY: Lossless

  • RATING: 10 / 5    
  • VOTE:

  • DOWNLOAD: DOWNLOAD TORRENT
  • СИДЫ:

Torrent description



1. Seek You Must (08:15)
2. Escaping the Dark Side (07:41)
3. Nature Boy (06:35)
4. New Love (05:31)
5. Falling Angels (feat. Ambrose Akinmusire) (06:40)
6. Helen's Song (06:08)
7. Holy Holy (02:14)
8. Perseverance (feat. Ambrose Akinmusire) (06:19)

Qobuz
Bandcamp

Источник (релизер): q3mi4

- Plume / alto saxophone
- Leonardo Montana / piano
- Géraud Portal / double bass
- Antoine Paganotti / drums
featuring:
- Ambrose Akinmusire / trumpet (on tracks 5 and 8)


foobar2000 1.4.3 / Dynamic Range Meter 1.1.1
log date: 2019-04-05 11:16:29

--------------------------------------------------------------------------------
Analyzed: Plume feat. Ambrose Akinmusire / Escaping the Dark Side (1-2)
Plume feat. Leonardo Montana & Geraud Portal & Antoine Paganotti / Escaping the Dark Side (3-7)
Plume feat. Leonardo Montana / Escaping the Dark Side (8)
--------------------------------------------------------------------------------

DR Peak RMS Duration Track
--------------------------------------------------------------------------------
DR9 -0.70 dB -12.00 dB 6:40 05-Falling Angels
DR10 -0.70 dB -12.22 dB 6:19 08-Perseverance
DR10 -0.70 dB -13.19 dB 8:15 01-Seek You Must
DR9 -0.70 dB -11.31 dB 7:41 02-Escaping the Dark Side
DR9 -0.70 dB -11.78 dB 6:35 03-Nature Boy
DR11 -0.71 dB -14.09 dB 5:31 04-New Love
DR10 -0.70 dB -12.24 dB 6:08 06-Helen's Song
DR11 -5.55 dB -21.01 dB 2:14 07-Holy Holy
--------------------------------------------------------------------------------

Number of tracks: 8
Official DR value: DR10

Samplerate: 44100 Hz
Channels: 2
Bits per sample: 24
Bitrate: 1240 kbps
Codec: FLAC
================================================================================



Comments (3)


19 april 2019
nostramus   
0 
PR:XCityXXX GBXXX GBПостовХС
В
Л
Х

Thanks


17 april 2019
rotihellas   
0 
PR:XCityXXX GBXXX GBПостовХС
В
Л
Х

Thanks!


16 april 2019
Bagdee   
0 
PR:XCityXXX GBXXX GBПостовХС
В
Л
Х

Thank you



 

Similar albums

Please enable Javascript!
Пожалуйста включите Javascript, иначе данный и другие сайты могут работать не корректно! Узнать как включить Javascript можно на Google Support