Categories
Welcome to Music Torrent Tracker - Sound-Park  ι  JOIN US FOR FULL ACCESS  ι  Log In  ι  Forgot your password?

Armik - Pacifica (Lossless, Hi Res 2018)

Flamenco
 
Date: 17 april 2019
Added: StasOn11
Views: 1812
  • ARTIST: Armik
  • ALBUM / TITLE: Pacifica
  • RELEASE YEAR / DATE: January 26, 2018
  • COUNTRY: Iran / United States
  • STYLE: Nuevo Flamenco
  • LABEL: (C) 2018 Bolero Records
  • DURATION: 00:49:46
  • FILE FORMAT: FLAC, (tracks) 24 bits, 96 KHz
  • QUALITY: Lossless
  • Site: armik.com

  • RATING: 10 / 8    
  • VOTE:

  • DOWNLOAD: DOWNLOAD TORRENT
  • СИДЫ:

Torrent description



01. Pacifica (4:20)
02. Forever In Love (5:10)
03. Caribbean Dreams (4:28)
04. Heaven In Your Eyes (4:33)
05. Cozumel (4:33)
06. Last Dance (4:45)
07. Sandcastles (4:21)
08. Euphoria (4:37)
09. Whispering Shadows (4:40)
10. One Way To Paradise (4:24)
11. Untold Story (3:55)

Аmazon

Источник (релизер): papa1954

Армик (полное имя Армик Дашчи) — американский гитарист и композитор, играющий в стиле «новое фламенко», сочетающее в себе джаз, фламенко и латиноамериканские ритмы.
Родился в Тегеране (Иран) в армянской семье в 1950 году. В возрасте 7 лет начал учиться играть на гитаре, которую купил сам, втайне от родителей продав свои наручные часы.
В 1980 году после Исламской революции Армик был вынужден покинуть Иран, так как ни его армянско-христианское происхождение, ни его вольная музыка не вписывались в наступивший жёсткий мусульманский режим.
С 1981 года Армик постоянно проживает в Лос-Анджелесе, США. В 2002 году основал независимый лейбл звукозаписи Bolero Records.


Armik, a prolific composer of bravura guitar works, enjoys great popularity around the world. Launching his solo career in 1994, Armik drew upon his jazz roots and flamenco passions to create a revolutionary twist on the emerging Nuevo flamenco sound. His invaluable compositions and performances cover an entire range of provocative melodies honed throughout his formative years to his delicate balancing of flamenco and classical guitar to the Latin and jazz influences that listeners hear in his music today.

For decades, the feverish and fierce art of Flamenco guitar has spread like wildfire from Spain to points around the globe. Armik is now honoring that legacy in the Nuevo Flamenco genre by fusing a wider variety of musical styles including Flamenco, Spanish guitar, and Latin jazz. Armik, who has produced and performed on a vast number of Billboard’s number one best-selling albums, leads the remarkable guitarists of the Nuevo Flamenco genre with Pacifica, his 29th recording of 11 original songs for his record imprint Bolero Records. With over 35 albums charting in the top 10 spots on the Billboard New Age chart, Armik is the most popular Nuevo Flamenco guitarist recording and performing today. His songwriting, virtuosic performances, and adaptations of today’s most popular musical styles to many traditional Spanish music genres, while maintaining a strictly improvisational approach has made him a trailblazing virtuoso who is without comparison. With Pacifica, Armik’s complex but assessable blend of Spanish guitar, Latin jazz and Flamenco traditions will surely bring him continued worldwide critical acclaim, fame and an enduring legacy unmatched by his Nuevo Flamenco peers.


foobar2000 1.3.9 / Dynamic Range Meter 1.1.1
log date: 2018-02-05 20:52:41

--------------------------------------------------------------------------------
Analyzed: Armik / Pacifica
--------------------------------------------------------------------------------

DR Peak RMS Duration Track
--------------------------------------------------------------------------------
DR6 -0.20 dB -7.63 dB 4:20 01-Pacifica
DR6 -0.20 dB -7.09 dB 5:10 02-Forever In Love
DR6 -0.20 dB -7.25 dB 4:28 03-Caribbean Dreams
DR6 -0.20 dB -8.18 dB 4:33 04-Heaven In Your Eyes
DR7 -0.20 dB -8.19 dB 4:33 05-Cozumel
DR7 -0.20 dB -8.60 dB 4:45 06-Last Dance
DR6 -0.20 dB -7.54 dB 4:21 07-Sandcastles
DR7 -0.20 dB -8.21 dB 4:37 08-Euphoria
DR6 -0.20 dB -7.80 dB 4:40 09-Whispering Shadows
DR7 -0.20 dB -7.89 dB 4:24 10-One Way To Paradise
DR10 -0.20 dB -13.08 dB 3:55 11-Untold Story
--------------------------------------------------------------------------------

Number of tracks: 11
Official DR value: DR7

Samplerate: 96000 Hz
Channels: 2
Bits per sample: 24
Bitrate: 1537 kbps
Codec: FLAC
================================================================================



Comments (8)


21 april 2019
alexblog   
0 
PR:XCityXXX GBXXX GBПостовХС
В
Л
Х

Thank you


20 april 2019
asfodelo13   
0 
PR:XCityXXX GBXXX GBПостовХС
В
Л
Х

THANK YOU VERY MUCH YOU ARE THE BEST


19 april 2019
StasOn11   
0 
PR:XCityXXX GBXXX GBПостовХС
В
Л
Х

Citation:  Radja
СПАСИБО !!!!!!!!!!!!

СПАСИБО !!!!!!!!!!!!
Citation:  tcbr18vep
Благодарю

Спасибо за "Благодарность"!


18 april 2019
shamolov   
0 
PR:XCityXXX GBXXX GBПостовХС
В
Л
Х


18 april 2019
Radja   
+2 
PR:XCityXXX GBXXX GBПостовХС
В
Л
Х

СПАСИБО !!!!!!!!!!!!


18 april 2019
MohamedSamooo95   
+1 
PR:XCityXXX GBXXX GBПостовХС
В
Л
Х


18 april 2019
rotihellas   
+1 
PR:XCityXXX GBXXX GBПостовХС
В
Л
Х

Thanks!


17 april 2019
tcbr18vep   
+4 
PR:XCityXXX GBXXX GBПостовХС
В
Л
Х

Благодарю



 

Similar albums

+ More
Please enable Javascript!
Пожалуйста включите Javascript, иначе данный и другие сайты могут работать не корректно! Узнать как включить Javascript можно на Google Support