Categories
Welcome to Music Torrent Tracker - Sound-Park  ι  JOIN US FOR FULL ACCESS  ι  Log In  ι  Forgot your password?

Grand Magus - Wolf God (Lossless, Hi Res 2019)

Heavy Metal  Stoner Metal
 
Date: 20 april 2019
Added: StasOn11
Views: 2832
  • ARTIST: Grand Magus
  • ALBUM / TITLE: Wolf God
  • RELEASE YEAR / DATE: 2019
  • COUNTRY: Stockholm, Sweden
  • STYLE: Heavy Metal, Stoner Metal
  • LABEL: © 2019 Nuclear Blast
  • DURATION: 00:38:51
  • FILE FORMAT: FLAC, (tracks) 24 bits, 44,1 KHz
  • QUALITY: Lossless
  • Site: grandmagus.com

  • RATING: 9 / 11    
  • VOTE:

  • DOWNLOAD: DOWNLOAD TORRENT
  • СИДЫ:

Torrent description



01. Gold And Glory (2:18)
02. Wolf God (3:49)
03. A Hall Clad In Gold (5:02)
04. Brother Of The Storm (3:16)
05. Dawn Of Fire (5:12)
06. Spear Thrower (2:55)
07. To Live And Die In Solitude (3:41)
08. Glory To The Brave (5:15)
09. He Sent Them All To Hel (3:37)
10. Untamed (3:46)

Qobuz

Источник (релизер): Andromaxvic


foobar2000 1.4.3 / Замер динамического диапазона (DR) 1.1.1
Дата отчёта: 2019-04-19 04:17:38

--------------------------------------------------------------------------------
Анализ: Grand Magus / Wolf God
--------------------------------------------------------------------------------

DR Пики RMS Продолжительность трека
--------------------------------------------------------------------------------
DR10 -2.50 дБ -16.29 дБ 2:18 01-Gold And Glory
DR7 -0.95 дБ -8.71 дБ 3:49 02-Wolf God
DR7 -0.95 дБ -9.33 дБ 5:02 03-A Hall Clad In Gold
DR7 -0.95 дБ -9.31 дБ 3:16 04-Brother Of The Storm
DR6 -0.95 дБ -9.19 дБ 5:12 05-Dawn Of Fire
DR7 -0.95 дБ -8.86 дБ 2:55 06-Spear Thrower
DR7 -0.95 дБ -8.65 дБ 3:41 07-To Live And Die In Solitude
DR7 -0.95 дБ -9.16 дБ 5:15 08-Glory To The Brave
DR8 -0.95 дБ -10.00 дБ 3:37 09-He Sent Them All To Hel
DR6 -0.95 дБ -8.56 дБ 3:46 10-Untamed
--------------------------------------------------------------------------------

Количество треков: 10
Реальные значения DR: DR7

Частота: 44100 Гц
Каналов: 2
Разрядность: 24
Битрейт: 1781 кбит/с
Кодек: FLAC
================================================================================



Comments (5)


26 july 2019
lanavarro66   
0 
PR:XCityXXX GBXXX GBПостовХС
В
Л
Х

excellent


21 april 2019
knut63   
+5 
PR:XCityXXX GBXXX GBПостовХС
В
Л
Х

Чудненько! Воскресенье началось прекрасно - Grand Magus подействовал сильнее двойного кофе! Хотел скачать всю дискографию, но нет раздачи. Пришлось дуть по одному альбому, но это стоило того!
Спасибо всем раздающим и залившему за знакомство с замечательной группой!


20 april 2019
METALSHOP   
0 
PR:XCityXXX GBXXX GBПостовХС
В
Л
Х

THANKS.


20 april 2019
zorro96   
0 
PR:XCityXXX GBXXX GBПостовХС
В
Л
Х

thanks


20 april 2019
Bagdee   
0 
PR:XCityXXX GBXXX GBПостовХС
В
Л
Х

Thank you



 

Similar albums

+ More
Please enable Javascript!
Пожалуйста включите Javascript, иначе данный и другие сайты могут работать не корректно! Узнать как включить Javascript можно на Google Support