Categories
Welcome to Music Torrent Tracker - Sound-Park  ι  JOIN US FOR FULL ACCESS  ι  Log In  ι  Forgot your password?

Jane Lee Hooker - Spiritus (Lossless, Hi Res 2017)

Blues-rock
 
Date: 20 april 2019
Added: StasOn11
Views: 2253
  • ARTIST: Jane Lee Hooker
  • ALBUM / TITLE: Spiritus
  • RELEASE YEAR / DATE: 2017
  • COUNTRY: United States
  • STYLE: Blues Rock
  • LABEL: Ruf Records
  • DURATION: 00:52:54
  • FILE FORMAT: FLAC, (tracks) 24 bits, 96 KHz
  • QUALITY: Lossless

  • RATING: 9.43 / 7    
  • VOTE:

  • DOWNLOAD: DOWNLOAD TORRENT
  • СИДЫ:

Torrent description



01. How Ya Doin’?
02. Gimme That
03. Mama Said
04. Be My Baby
05. Later On
06. Black Rat
07. Ends Meet
08. How Bright the Moon
09. Turn on Your Love Light
10. The Breeze

Highresaudio

Источник (релизер): gyji58


foobar2000 1.3.16 / Dynamic Range Meter 1.1.1

--------------------------------------------------------------------------------
Analyzed: Jane Lee Hooker / Spiritus
--------------------------------------------------------------------------------

DR Peak RMS Duration Track
--------------------------------------------------------------------------------
DR6 -0.02 dB -7.22 dB 6:07 01-How Ya Doin’?
DR6 -0.02 dB -7.93 dB 3:52 02-Gimme That
DR5 -0.02 dB -6.88 dB 4:44 03-Mama Said
DR5 -0.02 dB -7.23 dB 5:44 04-Be My Baby
DR4 -0.02 dB -6.25 dB 5:39 05-Later On
DR5 -0.02 dB -6.52 dB 3:01 06-Black Rat
DR7 -0.02 dB -8.24 dB 4:56 07-Ends Meet
DR6 -0.02 dB -8.98 dB 4:01 08-How Bright The Moon
DR5 -0.02 dB -6.75 dB 5:11 09-Turn On Your Love Light
DR6 -0.02 dB -8.66 dB 9:45 10-The Breeze
--------------------------------------------------------------------------------

Number of tracks: 10
Official DR value: DR6

Samplerate: 96000 Hz
Channels: 2
Bits per sample: 24
Bitrate: 2832 kbps
Codec: FLAC
================================================================================



Comments (6)


30 july 2019
miketwo77   
0 
PR:XCityXXX GBXXX GBПостовХС
В
Л
Х

Thanks


1 may 2019
aouema   
0 
PR:XCityXXX GBXXX GBПостовХС
В
Л
Х

Grazie molte


21 april 2019
frankitimote   
0 
PR:XCityXXX GBXXX GBПостовХС
В
Л
Х

Great Thanks..!


21 april 2019
lanavarro66   
0 
PR:XCityXXX GBXXX GBПостовХС
В
Л
Х

great


21 april 2019
Phantastych   
0 
PR:XCityXXX GBXXX GBПостовХС
В
Л
Х

Many thanks


20 april 2019
Bagdee   
+1 
PR:XCityXXX GBXXX GBПостовХС
В
Л
Х

Thank you



 

Similar albums

Please enable Javascript!
Пожалуйста включите Javascript, иначе данный и другие сайты могут работать не корректно! Узнать как включить Javascript можно на Google Support