Categories
Welcome to Music Torrent Tracker - Sound-Park  ι  JOIN US FOR FULL ACCESS  ι  Log In  ι  Forgot your password?

Jane Lee Hooker - No B! (Lossless, Hi Res 2016)

Blues-rock
 
Date: 20 april 2019
Added: StasOn11
Views: 1628
  • ARTIST: Jane Lee Hooker
  • ALBUM / TITLE: No B!
  • RELEASE YEAR / DATE: 2016
  • COUNTRY: United States
  • STYLE: Rock, Blues-Rock
  • LABEL: Ruf Records
  • DURATION: 00:51:52
  • FILE FORMAT: FLAC, (tracks) 24 bits, 44,1 KHz
  • QUALITY: Lossless

  • RATING: 9.83 / 6    
  • VOTE:

  • DOWNLOAD: DOWNLOAD TORRENT
  • СИДЫ:

Torrent description



01. Wade in the Water
02. Mean Town Blues
03. I Believe to My Soul
04. Bumble Bee
05. In the Valley
06. Free Me
07. The Hunter
08. Champagne and Reefer
09. Didn’t It Rain
10. Mannish Boy
11. Shake for Me

Highresaudio

Источник (релизер): gyji58


foobar2000 1.3.7 / Dynamic Range Meter 1.1.1

--------------------------------------------------------------------------------
Analyzed: Jane Lee Hooker / No B!
--------------------------------------------------------------------------------

DR Peak RMS Duration Track
--------------------------------------------------------------------------------
DR9 -0.22 dB -10.49 dB 4:32 01-Wade In The Water
DR10 -0.03 dB -10.93 dB 5:08 02-Mean Town Blues
DR10 -0.02 dB -11.80 dB 5:20 03-I Believe To My Soul
DR11 -0.14 dB -12.99 dB 4:57 04-Bumble Bee
DR9 -0.02 dB -10.87 dB 3:28 05-In The Valley
DR11 -0.02 dB -13.01 dB 3:42 06-Free Me
DR10 -0.03 dB -10.96 dB 3:37 07-The Hunter
DR12 -0.02 dB -13.68 dB 4:09 08-Champagne And Reefer
DR10 -0.03 dB -11.60 dB 6:17 09-Didn't It Rain
DR9 -0.03 dB -11.31 dB 5:02 10-Mannish Boy
DR9 -0.05 dB -10.23 dB 5:40 11-Shake For Me
--------------------------------------------------------------------------------

Number of tracks: 11
Official DR value: DR10

Samplerate: 44100 Hz
Channels: 2
Bits per sample: 24
Bitrate: 1664 kbps
Codec: FLAC
================================================================================



Comments (6)


30 july 2019
miketwo77   
0 
PR:XCityXXX GBXXX GBПостовХС
В
Л
Х

Thanks


24 april 2019
mass0315   
0 
PR:XCityXXX GBXXX GBПостовХС
В
Л
Х

mo es posible cargar torrent


21 april 2019
frankitimote   
0 
PR:XCityXXX GBXXX GBПостовХС
В
Л
Х

Great Thanks..!


21 april 2019
lanavarro66   
0 
PR:XCityXXX GBXXX GBПостовХС
В
Л
Х

excellent


21 april 2019
Phantastych   
0 
PR:XCityXXX GBXXX GBПостовХС
В
Л
Х

Many thanks


20 april 2019
Bagdee   
+1 
PR:XCityXXX GBXXX GBПостовХС
В
Л
Х

Thank you



 

Similar albums

Please enable Javascript!
Пожалуйста включите Javascript, иначе данный и другие сайты могут работать не корректно! Узнать как включить Javascript можно на Google Support