Categories
Welcome to Music Torrent Tracker - Sound-Park  ι  JOIN US FOR FULL ACCESS  ι  Log In  ι  Forgot your password?

Seth MacFarlane - Once In A While (Lossless, Hi Res 2019)

Vocal jazz
 
Date: 20 april 2019
Added: StasOn11
Views: 1672
  • ARTIST: Seth MacFarlane
  • ALBUM / TITLE: Once In A While
  • RELEASE YEAR / DATE: 2019
  • COUNTRY: United States
  • STYLE: Vocal Jazz
  • LABEL: Verve
  • DURATION: 00:58:56
  • FILE FORMAT: FLAC, (tracks) 24 bits, 96 KHz
  • QUALITY: Lossless

  • RATING: 10 / 6    
  • VOTE:

  • DOWNLOAD: DOWNLOAD TORRENT
  • СИДЫ:

Torrent description



01. Half As Lovely (Twice As True) (04:54)
02. I Remember You (05:30)
03. They Say It’s Wonderful (04:57)
04. We’ll Be Together Again (03:51)
05. The Things We Did Last Summer (03:35)
06. I’ll Be Around (04:01)
07. There’ll Be Another Spring (03:47)
08. Once In A While (04:17)
09. The Party’s Over (04:55)
10. Can’t We Be Friends? (04:52)
11. What’ll I Do (04:52)
12. You Are Too Beautiful (05:02)
13. The End Of A Love Affair (04:23)

Highresaudio

Источник (релизер): Stephenten

2019 release from the multi-talented entertainer. MacFarlane has established himself as one of the leading creative forces in the entertainment industry, enjoying spectacular success in television and film. With his fifth album, the Grammy-nominated artist further extends his relationship to the Great American Songbook, while revealing new depths as a vocalist. “Once In A While is a collection of wistful, pensive songs that deal with longing, lost love, and sadness, infused with fond recollection and a hint of hope,” says Seth MacFarlane.


foobar2000 1.4 / Dynamic Range Meter 1.1.1
log date: 2019-04-19 18:11:17

--------------------------------------------------------------------------------
Analyzed: Seth MacFarlane / Once In A While
--------------------------------------------------------------------------------

DR Peak RMS Duration Track
--------------------------------------------------------------------------------
DR10 -0.42 dB -14.20 dB 4:52 01-Half As Lovely (Twice As True)
DR9 -0.30 dB -14.11 dB 5:31 02-I Remember You
DR10 -0.30 dB -14.07 dB 4:58 03-They Say It’s Wonderful
DR9 -0.30 dB -12.95 dB 3:54 04-We’ll Be Together Again
DR10 -0.30 dB -13.63 dB 3:36 05-The Things We Did Last Summer
DR9 -0.30 dB -13.95 dB 4:01 06-I’ll Be Around
DR10 -0.30 dB -13.42 dB 3:48 07-There’ll Be Another Spring
DR9 -0.30 dB -13.66 dB 4:17 08-Once In A While
DR10 -0.30 dB -15.09 dB 4:57 09-The Party’s Over
DR10 -0.30 dB -13.84 dB 4:52 10-Can’t We Be Friends?
DR10 -0.42 dB -13.77 dB 4:53 11-What’ll I Do
DR10 -1.37 dB -15.17 dB 5:03 12-You Are Too Beautiful
DR10 -0.30 dB -15.11 dB 4:23 13-The End Of A Love Affair
--------------------------------------------------------------------------------

Number of tracks: 13
Official DR value: DR10
Samplerate: 96000 Hz
Channels: 2
Bits per sample: 24
Bitrate: 2946 kbps
Codec: FLAC
================================================================================



Comments (6)


14 july 2019
Litlstar   
+1 
PR:XCityXXX GBXXX GBПостовХС
В
Л
Х

Спасибо!


1 may 2019
aouema   
+1 
PR:XCityXXX GBXXX GBПостовХС
В
Л
Х

Grazie molte


21 april 2019
shamolov   
+1 
PR:XCityXXX GBXXX GBПостовХС
В
Л
Х

Большое спасибо.


20 april 2019
StasOn11   
+1 
PR:XCityXXX GBXXX GBПостовХС
В
Л
Х

Citation:  Снумик
Большое спасибо.

Благодарю за "Спасибо"!


20 april 2019
Снумик   
+2 
PR:XCityXXX GBXXX GBПостовХС
В
Л
Х

Большое спасибо.


20 april 2019
Bagdee   
+1 
PR:XCityXXX GBXXX GBПостовХС
В
Л
Х

Thank you



 

Similar albums

Please enable Javascript!
Пожалуйста включите Javascript, иначе данный и другие сайты могут работать не корректно! Узнать как включить Javascript можно на Google Support