Categories
Welcome to Music Torrent Tracker - Sound-Park  ι  JOIN US FOR FULL ACCESS  ι  Log In  ι  Forgot your password?

Dominique Fils-Aime - Stay Tuned! (Lossless, Hi Res 2019)

Soul  R&B (Nu Soul)  Vocal jazz
 
Date: 20 april 2019
Added: StasOn11
Views: 2560
  • ARTIST: Dominique Fils-Aime
  • ALBUM / TITLE: Stay Tuned!
  • RELEASE YEAR / DATE: 2019
  • COUNTRY: Canada
  • STYLE: Neo-Soul, Urban Contemporary R&B, Vocal Jazz
  • LABEL: © 2019 Ensoul Records
  • DURATION: 00:39:04
  • FILE FORMAT: FLAC, (tracks) 24 bits, 88,2 KHz
  • QUALITY: Lossless
  • Site: domiofficial.com/en

  • RATING: 10 / 14    
  • VOTE:

  • DOWNLOAD: DOWNLOAD TORRENT
  • СИДЫ:

Torrent description



1. Good Feeling 00:51
2. Constructive Interference 02:19
3. Where there is Smoke 03:30
4. There is probably Fire 04:10
5. Gun Burial 03:04
6. Big Man Do Cry 03:15
7. Sun Rise 02:01
8. Some Body 04:05
9. 9LRR 01:55
10. Revolution Serenade 03:26
11. Free Dom 04:42
12. Magic Whistle 00:51
13. Joy River 04:11
14. Stay Tuned! 00:39

Qobuz

Источник (релизер): soloneba

Сладкоголосая канадская соул-дива Доминик Фис-Эме родом из Монреаля. Она черпает своё вдохновение в творчестве таких джазовых икон, как Билли Холидей, Этта Джеймс, Нина Симон, Лина Хорн. В 2015 году Фис-Эме вышла в полуфинал популярного шоу The Voice. Но по-настоящему Доминик завоевала сердца слушателей, выпустив альбомы Nameless (2018) и Stay Tuned! (2019), которые получили восторженные отзывы в прессе и привлекли внимание как корифеев джаза, так и, благодаря современным r&b-аранжировкам, молодого поколения любителей нео-соула.

Dominique Fils-Aimé is a singer-songwriter from Montreal whose inspiration is drawn from soul icons of the 40’s and the 60’s the likes of Billie Holiday, Etta James and Nina Simone. In 2015 she made it to the semi-finals on The Voice and gripped the audience with her sultry and genuine voice.

Moving on from her 2018 debut full length blues-tinged Nameless—which boldly confronted historical silences and sorrows—Stay Tuned! is both a call for and reminder of revolution expressed with the fury of red-hot jazz. Wanting to break away from the standards of traditional compositions, Dominique presents a body of work focused on liberating herself from musical forms.

'Stay Tuned!' is Dominique Fils-Aimé’s sophomore album, the follow-up to her debut full length 'Nameless', part of her trilogy that brings to center stage the resiliency of mankind in the face of adversity and oppression and pays homage to Afro-American history and culture.

In this second recording, containing 14 original songs, Dominique delves into the civil rights movement of the 60s and explores several significant socio-political events which deeply affected the course of black history (Lincoln Hills Country Club, Little Nine Rock, Emmett Till). She honours unsung heroes of the civil liberties movement as well as historical figures of the time such as Rosa Parks, Joséphine Baker, Lena Horne, Malcolm X and Martin Luther King.

The album combines elements of soul, jazz, gospel and blends vocal harmonies, double bass, piano and trumpet over stirring and permuting grooves. Stay Tuned!’s lush vocal arrangements bring out Dominique’s voice as a stand-alone instrument, giving prominence to the words and the message she carries. Part rebellious and fiery, part sentimental and intimate, Dominique embodies afro-american music from then and now, all the while highlighting its defying power in a violent and divisive society. Breaking away from the standards of traditional compositions, the singer and songwriter presents a body of work focused on liberated musical forms hinting at the spirit of jazz.

Moving on from the blues-tinged 'Nameless'—which boldly confronted historical silences and sorrows—'Stay Tuned!' is both a call for and reminder of revolution expressed with the fury of red-hot jazz.

All songs written by Dominique Fils-Aimé (Ensoul Publishing).

Vocals: Dominique Fils-Aimé
Bass: Jacques Roy
Drums: Salin Cheewapansri
Percussions: Elli Miller Maboungou
Keys: Nathan Vanheuverzwijn
Guitar: Étienne Miousse
Piano: Jean-Michel Frédéric
Trumpet: Hichem Khalfa
Didgeridoo: Kevin Annocque

Photography: Kevin Millet
Artwork: Siou-Min Julien



foobar2000 1.1.15 / Dynamic Range Meter 1.1.1
log date: 2019-04-18 08:36:59

--------------------------------------------------------------------------------
Analyzed: Dominique Fils-Aimé / Stay Tuned!
--------------------------------------------------------------------------------

DR Peak RMS Duration Track
--------------------------------------------------------------------------------
DR7 -0.82 dB -10.78 dB 0:51 01-Good Feeling
DR8 -0.81 dB -11.74 dB 2:19 02-Constructive Interference
DR9 -0.81 dB -12.29 dB 3:30 03-Where there is Smoke
DR10 -0.81 dB -12.44 dB 4:10 04-There is probably Fire
DR8 -0.80 dB -12.19 dB 3:04 05-Gun Burial
DR9 -0.81 dB -13.19 dB 3:15 06-Big Man Do Cry
DR9 -0.82 dB -11.86 dB 0:52 07-Magic Whistle
DR9 -0.80 dB -11.69 dB 4:05 08-Some Body
DR8 -0.81 dB -11.18 dB 1:55 09-9LRR
DR9 -0.81 dB -11.82 dB 3:27 10-Revolution Serenade
DR9 -0.80 dB -11.21 dB 2:01 11-Sun Rise
DR9 -0.80 dB -12.59 dB 4:42 12-Free Dom
DR11 -0.80 dB -14.23 dB 4:11 13-Joy River
DR9 -0.81 dB -13.70 dB 0:40 14-Stay Tuned!
--------------------------------------------------------------------------------

Number of tracks: 14
Official DR value: DR9

Samplerate: 88200 Hz
Channels: 2
Bits per sample: 24
Bitrate: 2334 kbps
Codec: FLAC
================================================================================



Comments (16)


16 july 2019
StasOn11   
+1 
PR:XCityXXX GBXXX GBПостовХС
В
Л
Х

Citation:  IGGROZ
Спасибо!

Citation:  Litlstar
Спасибо!

Спасибо за "Спасибо"!


15 july 2019
IGGROZ   
+2 
PR:XCityXXX GBXXX GBПостовХС
В
Л
Х

Спасибо!


14 july 2019
Litlstar   
+2 
PR:XCityXXX GBXXX GBПостовХС
В
Л
Х

Спасибо!


22 april 2019
StasOn11   
+1 
PR:XCityXXX GBXXX GBПостовХС
В
Л
Х

Citation:  Nasyroff
СПАСИБО!

Citation:  shamolov
Спасибо

Благодарю за "Спасибо"!


22 april 2019
mishelinka   
+1 
PR:XCityXXX GBXXX GBПостовХС
В
Л
Х

Great record, thanx very much !


22 april 2019
Nasyroff   
+1 
PR:XCityXXX GBXXX GBПостовХС
В
Л
Х

СПАСИБО!


21 april 2019
frankitimote   
+1 
PR:XCityXXX GBXXX GBПостовХС
В
Л
Х

Looking good..!Thanks


21 april 2019
shamolov   
+1 
PR:XCityXXX GBXXX GBПостовХС
В
Л
Х

Спасибо


20 april 2019
StasOn11   
+1 
PR:XCityXXX GBXXX GBПостовХС
В
Л
Х

Citation:  tcbr18vep
Благодарю

Citation:  stebl
Благодарю

Спасибо за "Благодарность"!
Citation:  vlmn
Спасибо!!

Спасибо за "Спасибо"!


20 april 2019
tcbr18vep   
+1 
PR:XCityXXX GBXXX GBПостовХС
В
Л
Х

Благодарю


+ More
 

Please enable Javascript!
Пожалуйста включите Javascript, иначе данный и другие сайты могут работать не корректно! Узнать как включить Javascript можно на Google Support