Categories
Welcome to Music Torrent Tracker - Sound-Park  ι  JOIN US FOR FULL ACCESS  ι  Log In  ι  Forgot your password?

Kilchhofer - The Book Room (Lossless, Hi Res 2018)

Ambient  Other Electronic
 
Date: 20 april 2019
Added: StasOn11
Views: 953
  • ARTIST: Kilchhofer
  • ALBUM / TITLE: The Book Room
  • RELEASE YEAR / DATE: 2018
  • COUNTRY: Switzerland (Sankt Gallen / Sankt Gallen)
  • STYLE: Tribal Ambient, Progressive Electronic, Berlin School
  • LABEL: Marionette (Ganada) - Marionette07
  • DURATION: 01:14:10
  • FILE FORMAT: FLAC, (tracks) 24 bits, 44,1 KHz
  • QUALITY: Lossless

  • RATING: 10 / 4    
  • VOTE:

  • DOWNLOAD: DOWNLOAD TORRENT
  • СИДЫ:

Torrent description



01. Anzu [01:19]
02. Varen [03:53]
03. Leng [07:55]
04. Chogal [01:57]
05. Trift [04:43]
06. Hedha [04:11]
07. Plyn [03:13]
08. Wiwanni [02:45]
09. Nihic [04:13]
10. Lubbari [04:07]
11. Topot [03:18]
12. Karon [03:44]
13. Wron [01:45]
14. Durhi [04:31]
15. Skimo [05:08]
16. Uhta [02:51]
17. Grima [04:46]
18. Thorron [04:18]
19. Vran [03:04]
20. Tusk [02:40]

Вandcamp

Источник (релизер): Strelnikoff Vladimir


foobar2000 1.3.9 / Dynamic Range Meter 1.1.1
log date: 2019-04-18 21:21:06

--------------------------------------------------------------------------------
Analyzed: Kilchhofer / The Book Room
--------------------------------------------------------------------------------

DR Peak RMS Duration Track
--------------------------------------------------------------------------------
DR10 -7.39 dB -20.59 dB 1:18 01-Anzu
DR11 -0.13 dB -13.27 dB 3:53 02-Varen
DR8 -0.13 dB -10.99 dB 7:55 03-Leng
DR13 -4.48 dB -19.93 dB 1:56 04-Chogal
DR12 -0.12 dB -13.68 dB 4:42 05-Trift
DR9 -0.14 dB -12.72 dB 4:10 06-Hedha
DR11 -2.17 dB -16.65 dB 3:13 07-Plyn
DR9 -0.13 dB -11.84 dB 2:44 08-Wiwanni
DR9 -2.64 dB -16.16 dB 4:12 09-Nihic
DR9 -0.14 dB -11.69 dB 4:06 10-Lubbari
DR10 -0.12 dB -11.16 dB 3:18 11-Topot
DR10 -0.14 dB -13.48 dB 3:43 12-Karon
DR14 -3.83 dB -20.99 dB 1:45 13-Wron
DR12 -1.39 dB -17.88 dB 4:31 14-Durhi
DR8 -0.13 dB -11.03 dB 5:08 15-Skimo
DR10 -4.37 dB -17.18 dB 2:50 16-Uhta
DR8 -0.11 dB -10.63 dB 4:45 17-Grima
DR8 -2.98 dB -13.20 dB 4:17 18-Thorron
DR10 -0.13 dB -11.08 dB 3:03 19-Vran
DR7 -1.96 dB -11.00 dB 2:39 20-Tusk
--------------------------------------------------------------------------------

Number of tracks: 20
Official DR value: DR10

Samplerate: 44100 Hz
Channels: 2
Bits per sample: 24
Bitrate: 1049 kbps
Codec: FLAC
================================================================================



Comments (2)


24 april 2019
nascarfan15   
0 
PR:XCityXXX GBXXX GBПостовХС
В
Л
Х

MOON MAN


20 april 2019
Bagdee   
+1 
PR:XCityXXX GBXXX GBПостовХС
В
Л
Х

Thank you



 

Similar albums

Please enable Javascript!
Пожалуйста включите Javascript, иначе данный и другие сайты могут работать не корректно! Узнать как включить Javascript можно на Google Support