Categories
Welcome to Music Torrent Tracker - Sound-Park  ι  JOIN US FOR FULL ACCESS  ι  Log In  ι  Forgot your password?

Alban Gerhardt - Bach: Cello Suites (Lossless, Hi Res 2019)

Classical
 
Alban Gerhardt - Bach: Cello Suites (Lossless, Hi Res 2019)
Alban Gerhardt - Bach: Cello Suites (Lossless, Hi Res 2019)
Date: 23 april 2019
Added: StasOn11
Views: 1586
  • ARTIST: Alban Gerhardt
  • ALBUM / TITLE: Bach: Cello Suites
  • RELEASE YEAR / DATE: 2019
  • STYLE: Classical
  • LABEL: Hyperion
  • DURATION: 02:09:22
  • FILE FORMAT: FLAC, (tracks) 24 bits, 96 KHz
  • QUALITY: Lossless

  • RATING: 10 / 10    
  • VOTE:

  • DOWNLOAD: DOWNLOAD TORRENT
  • СИДЫ:

Torrent description



Bach, J S: Cello Suite No. 1 in G major, BWV1007
01. 1. Prelude
02. 2. Allemande
03. 3. Courante
04. 4. Sarabande
05. 5. Menuet I; Menuet II
06. 6. Gigue

Bach, J S: Cello Suite No. 2 in D minor, BWV1008
07. 1. Prelude
08. 2. Allemande
09. 3. Courante
10. 4. Sarabande
11. 5. Menuet I; Menuet II
12. 6. Gigue

Bach, J S: Cello Suite No. 3 in C major, BWV1009
13. 1. Prelude
14. 2. Allemande
15. 3. Courante
16. 4. Sarabande
17. 5. Bourrée I; Bourrée II
18. 6. Gigue

Bach, J S: Cello Suite No. 4 in E flat major, BWV1010
19. 1. Prelude
20. 2. Allemande
21. 3. Courante
22. 4. Sarabande
23. 5. Bourrée I; Bourrée II
24. 6. Gigue

Bach, J S: Cello Suite No. 5 in C minor, BWV1011
25. 1. Prelude
26. 2. Allemande
27. 3. Courante
28. 4. Sarabande
29. 5. Gavotte I; Gavotte II
30. 6. Gigue

MORE


Alban Gerhardt (cello)

Hyperion

Источник (релизер): ipokemongo
foobar2000 1.4.2 / Dynamic Range Meter 1.1.1
log date: 2019-04-22 11:59:55

--------------------------------------------------------------------------------
Analyzed: Alban Gerhardt / Bach: The Cello Suites
--------------------------------------------------------------------------------

DR Peak RMS Duration Track
--------------------------------------------------------------------------------
DR12 -7.74 dB -23.99 dB 2:56 01-Cello Suite No 1 in G major, BWV1007 - 1: Prelude
DR12 -8.30 dB -24.47 dB 3:44 02-Cello Suite No 1 in G major, BWV1007 - 2: Allemande
DR12 -5.88 dB -23.78 dB 2:40 03-Cello Suite No 1 in G major, BWV1007 - 3: Courante
DR12 -9.05 dB -26.60 dB 2:28 04-Cello Suite No 1 in G major, BWV1007 - 4: Sarabande
DR12 -9.24 dB -25.12 dB 3:09 05-Cello Suite No 1 in G major, BWV1007 - 5: Menuet I – Menuet II
DR12 -4.34 dB -24.66 dB 1:49 06-Cello Suite No 1 in G major, BWV1007 - 6: Gigue
DR11 -7.89 dB -22.43 dB 3:35 07-Cello Suite No 2 in D minor, BWV1008 - 1: Prelude
DR12 -5.16 dB -23.13 dB 2:43 08-Cello Suite No 2 in D minor, BWV1008 - 2: Allemande
DR13 -8.51 dB -24.52 dB 2:09 09-Cello Suite No 2 in D minor, BWV1008 - 3: Courante
DR12 -7.95 dB -24.20 dB 4:18 10-Cello Suite No 2 in D minor, BWV1008 - 4: Sarabande
DR17 -2.42 dB -23.49 dB 2:43 11-Cello Suite No 2 in D minor, BWV1008 - 5: Menuet I – Menuet II
DR12 -6.05 dB -22.62 dB 2:48 12-Cello Suite No 2 in D minor, BWV1008 - 6: Gigue
DR12 -4.47 dB -21.81 dB 3:56 13-Cello Suite No 3 in C major, BWV1009 - 1: Prelude
DR13 -6.86 dB -23.07 dB 3:42 14-Cello Suite No 3 in C major, BWV1009 - 2: Allemande
DR13 -7.19 dB -23.77 dB 3:12 15-Cello Suite No 3 in C major, BWV1009 - 3: Courante
DR12 -9.09 dB -25.95 dB 3:58 16-Cello Suite No 3 in C major, BWV1009 - 4: Sarabande
DR12 -8.14 dB -24.09 dB 3:41 17-Cello Suite No 3 in C major, BWV1009 - 5: Bourrée I – Bourrée II
DR13 -4.70 dB -22.11 dB 3:15 18-Cello Suite No 3 in C major, BWV1009 - 6: Gigue
DR12 -5.50 dB -21.70 dB 4:16 19-Cello Suite No 4 in E flat major, BWV1010 - 1: Prelude
DR13 -5.02 dB -23.58 dB 3:17 20-Cello Suite No 4 in E flat major, BWV1010 - 2: Allemande
DR12 -7.21 dB -23.06 dB 3:25 21-Cello Suite No 4 in E flat major, BWV1010 - 3: Courante
DR13 -7.45 dB -24.39 dB 4:03 22-Cello Suite No 4 in E flat major, BWV1010 - 4: Sarabande
DR14 -5.36 dB -23.94 dB 5:12 23-Cello Suite No 4 in E flat major, BWV1010 - 5: Bourrée I – Bourrée II
DR11 -8.15 dB -23.77 dB 2:44 24-Cello Suite No 4 in E flat major, BWV1010 - 6: Gigue
DR14 -2.96 dB -22.31 dB 5:21 25-Cello Suite No 5 in C minor, BWV1011 - 1: Prelude
DR13 -6.20 dB -23.31 dB 4:09 26-Cello Suite No 5 in C minor, BWV1011 - 2: Allemande
DR13 -5.86 dB -22.37 dB 1:57 27-Cello Suite No 5 in C minor, BWV1011 - 3: Courante
DR12 -10.71 dB -26.84 dB 3:22 28-Cello Suite No 5 in C minor, BWV1011 - 4: Sarabande
DR14 -4.39 dB -23.33 dB 4:30 29-Cello Suite No 5 in C minor, BWV1011 - 5: Gavotte I – Gavotte II
DR12 -7.35 dB -26.33 dB 2:08 30-Cello Suite No 5 in C minor, BWV1011 - 6: Gigue
DR14 -3.85 dB -22.19 dB 5:23 31-Cello Suite No 6 in D major, BWV1012 - 1: Prelude
DR14 -6.67 dB -24.24 dB 5:58 32-Cello Suite No 6 in D major, BWV1012 - 2: Allemande
DR15 -6.08 dB -23.88 dB 3:41 33-Cello Suite No 6 in D major, BWV1012 - 3: Courante
DR12 -6.87 dB -23.00 dB 4:53 34-Cello Suite No 6 in D major, BWV1012 - 4: Sarabande
DR14 -3.89 dB -21.99 dB 4:04 35-Cello Suite No 6 in D major, BWV1012 - 5: Gavotte I – Gavotte II
DR14 -5.05 dB -22.63 dB 4:16 36-Cello Suite No 6 in D major, BWV1012 - 6: Gigue
--------------------------------------------------------------------------------

Number of tracks: 36
Official DR value: DR13

Samplerate: 96000 Hz
Channels: 2
Bits per sample: 24
Bitrate: 2482 kbps
Codec: FLAC
================================================================================



Comments (5)


27 april 2019
woollies66   
0 
PR:XCityXXX GBXXX GBПостовХС
В
Л
Х

Thanx


25 april 2019
MRivas   
0 
PR:XCityXXX GBXXX GBПостовХС
В
Л
Х

Gracias


24 april 2019
sorun2011   
+1 
PR:XCityXXX GBXXX GBПостовХС
В
Л
Х

Thank you


24 april 2019
knut63   
+1 
PR:XCityXXX GBXXX GBПостовХС
В
Л
Х

Классика будет жить вечно. Это корни из которых растет древо культуры, будь то музыка, живопись или литература. Покойный брательник слушал исключительно классику и Пинк Флойд (у него были свои тараканы в голове). Квартира напоминала музей виниловых пластинок. У дальней стены стояло фано, на котором братан бренчал с утра до вечера, доводя соседей до истерики.
А я в это время кувыркался с девушками легкого поведения и вертелся среди музыкантов среднего пошиба.


23 april 2019
Bagdee   
+1 
PR:XCityXXX GBXXX GBПостовХС
В
Л
Х

Merci for sound, Stas



 

Please enable Javascript!
Пожалуйста включите Javascript, иначе данный и другие сайты могут работать не корректно! Узнать как включить Javascript можно на Google Support