Categories
Welcome to Music Torrent Tracker - Sound-Park  ι  JOIN US FOR FULL ACCESS  ι  Log In  ι  Forgot your password?

Yellow Magic Orchestra - Public Pressure (Lossless, Hi Res 1980/2019)

Synthpop
 
Date: 13 june 2019
Added: StasOn11
Views: 457
  • ARTIST: Yellow Magic Orchestra
  • ALBUM / TITLE: Public Pressure
  • RELEASE YEAR / DATE: 1980/2019
  • COUNTRY: Tokyo, Japan
  • STYLE: Synthpop
  • LABEL: Alfa ‎– MHCL / GT Music ‎– MHCL 10110
  • DURATION: 00:42:45
  • FILE FORMAT: ISO, (image) 64 (2,8 MHz/1 Bit)
  • QUALITY: Lossless
  • Site: ymo.org

  • RATING: 10 / 4    
  • VOTE:

  • DOWNLOAD: DOWNLOAD TORRENT
  • СИДЫ:

Torrent description



1. Rydeen 05:15
2. Solid State Survivor 04:04
3. Tong Poo 06:57
4. The End Of Asia 06:21
5. Cosmic Surfin’ 04:47
6. Day Tripper 02:47
7. Radio Junk 04:21
8. La Femme Chinoise 06:21
9. Back In Tokio 01:53

Discogs

Источник (релизер): severin_OK

Public Pressure (公的抑圧 Kōteki yokuatsu, Public pressure) is Yellow Magic Orchestra’s first live album, released on February 21, 1980. It was their second number-one album in Japan, setting a record of 250,000 copies sold within two weeks of release.

It was recorded during three dates of the group’s first tour of Europe and the US. The group toured as a six-piece, but guitarist Kazumi Watanabe was mixed-out and replaced with more keyboards due to contractual matters between record labels. Un-dubbed recordings from this tour were later released on the album Faker Holic. Most of Yukihiro Takahashi’s vocals were also replaced with those re-recorded afterward in studio. These were not restored on Faker Holic.

The first half of the album was recorded live at The Venue in London. “Cosmic Surfin'” was recorded at The Greek Theatre in Los Angeles while second side was recorded at The Bottom Line in New York City by John Venable using the 2nd Generation Record Plant Remote Truck.


foobar2000 1.3.13 / Замер динамического диапазона (DR) 1.1.1
Дата отчёта: 2019-06-10 23:02:51

--------------------------------------------------------------------------------
Анализ: Yellow Magic Orchestra / Public Pressure
--------------------------------------------------------------------------------

DR Пики RMS Продолжительность трека
--------------------------------------------------------------------------------
DR7 -5.73 дБ -14.64 дБ 5:15 01-Rydeen
DR7 -5.65 дБ -13.57 дБ 4:04 02-Solid State Survivor
DR7 -5.77 дБ -13.63 дБ 6:03 03-Tong Poo
DR8 -5.79 дБ -14.99 дБ 6:21 04-The End Of Asia
DR7 -5.52 дБ -14.53 дБ 4:42 05-Cosmic Surfin'
DR7 -5.65 дБ -13.79 дБ 2:47 06-Day Tripper
DR8 -5.32 дБ -14.88 дБ 4:21 07-Radio Junk
DR8 -5.52 дБ -15.06 дБ 6:15 08-La Femme Chinoise
DR14 -8.53 дБ -25.95 дБ 1:53 09-Back In Tokio
--------------------------------------------------------------------------------

Количество треков: 9
Реальные значения DR: DR8

Частота: 2822400 Гц / Частота PCM: 88200 Гц
Каналов: 2
Разрядность: 24
Битрейт: 5645 кбит/с
Кодек: DSD64
================================================================================



Comments (2)


16 june 2019
alexblog   
+1 
PR:XCityXXX GBXXX GBПостовХС
В
Л
Х

Thank you


14 june 2019
Bagdee   
+1 
PR:XCityXXX GBXXX GBПостовХС
В
Л
Х

Thank you



 

Similar albums

Please enable Javascript!
Пожалуйста включите Javascript, иначе данный и другие сайты могут работать не корректно! Узнать как включить Javascript можно на Google Support