Categories
Welcome to Music Torrent Tracker - Sound-Park  ι  JOIN US FOR FULL ACCESS  ι  Log In  ι  Forgot your password?

Yellow Magic Orchestra - X∞Multiplies (Lossless, Hi Res 1980/2019)

Synthpop
 
Date: 13 june 2019
Added: StasOn11
Views: 596
  • ARTIST: Yellow Magic Orchestra
  • ALBUM / TITLE: X∞Multiplies
  • RELEASE YEAR / DATE: 1980/2019
  • COUNTRY: Tokyo, Japan
  • STYLE: Synthpop
  • LABEL: Alfa ‎/ GT Music ‎– MHCL 10111
  • DURATION: 00:29:20
  • FILE FORMAT: ISO, (image) 64 (2,8 MHz/1 Bit)
  • QUALITY: Lossless
  • Site: ymo.org

  • RATING: 10 / 6    
  • VOTE:

  • DOWNLOAD: DOWNLOAD TORRENT
  • СИДЫ:

Torrent description



1. Jingle ‘Y.M.O.’ 00:21
2. Nice Age 03:47
3. Snakeman Show 01:56
4. Tighten Up (Japanese Gentlemen Stand Up Please!) 03:42
5. Snakeman Show 02:06
6. Here We Go Again – Tighten Up 01:07
7. Snakeman Show 01:26
8. Citizens Of Science 04:29
9. Snakeman Show 02:09
10. Multiplies 02:56
11. Snakeman Show 03:45
12. The End Of Asia 01:35

Discogs

Источник (релизер): severin_OK

×∞Multiplies (増殖 Zōshoku, lit. “multiplication”) was a mini-album and the third studio album by Yellow Magic Orchestra released in 1980. It contains a mixture of songs and instrumentals by YMO (including a humorous reworking of Archie Bell & the Drells’ “Tighten Up”), interspersed with comedy sketches. These sketches are performed by Snakeman Show in both Japanese and English, with YMO participating in some of them.

Allmusic Review

Xoo Multiplies is a bizarre album filled with singalong pop songs, a few interludes including commercial jingles and ad-men pitches, and no less than two versions of the Drells’ chestnut “Tighten Up.” There are a few solid electronic tunes (“Nice Age,” “Citizens of Science”) amid the chaos, plus instrumental versions of “Chaos Panic” and “Lotus Love” added to the CD issue.


foobar2000 1.3.13 / Замер динамического диапазона (DR) 1.1.1
Дата отчёта: 2019-06-10 22:55:39

--------------------------------------------------------------------------------
Анализ: Yellow Magic Orchestra / Multiplies
--------------------------------------------------------------------------------

DR Пики RMS Продолжительность трека
--------------------------------------------------------------------------------
DR10 -5.84 дБ -17.47 дБ 0:21 01-Jingle "Y.M.O."
DR7 -5.84 дБ -14.27 дБ 3:47 02-Nice Age
DR17 -6.18 дБ -25.51 дБ 1:56 03-Snakeman Show
DR8 -5.55 дБ -15.14 дБ 3:42 04-Tighten Up (Japanese Gentlemen Stand Up Please!)
DR16 -7.38 дБ -26.59 дБ 2:06 05-Snakeman Show
DR8 -5.47 дБ -15.45 дБ 1:07 06-Here We Go Again - Tighten Up
DR12 -9.16 дБ -24.26 дБ 1:26 07-Snakeman Show
DR7 -5.69 дБ -14.01 дБ 4:29 08-Citizens Of Science
DR11 -6.16 дБ -22.03 дБ 2:09 09-Snakeman Show
DR7 -5.80 дБ -14.78 дБ 2:56 10-Multiplies
DR11 -7.14 дБ -20.54 дБ 3:45 11-Snakeman Show
DR8 -6.04 дБ -16.78 дБ 1:35 12-The End Of Asia
--------------------------------------------------------------------------------

Количество треков: 12
Реальные значения DR: DR10

Частота: 2822400 Гц / Частота PCM: 88200 Гц
Каналов: 2
Разрядность: 24
Битрейт: 5645 кбит/с
Кодек: DSD64
================================================================================



Comments (2)


16 june 2019
alexblog   
0 
PR:XCityXXX GBXXX GBПостовХС
В
Л
Х

Thank you


14 june 2019
Bagdee   
−1 
PR:XCityXXX GBXXX GBПостовХС
В
Л
Х

Thank you



 

Similar albums

Please enable Javascript!
Пожалуйста включите Javascript, иначе данный и другие сайты могут работать не корректно! Узнать как включить Javascript можно на Google Support