Categories
Welcome to Music Torrent Tracker - Sound-Park  ι  JOIN US FOR FULL ACCESS  ι  Log In  ι  Forgot your password?

Baroness - Gold & Grey (Lossless, Hi Res 2019)

Progressive Metal  Sludge Metal  Progressive Rock
 
Date: 16 june 2019
Added: StasOn11
Views: 560
  • ARTIST: Baroness
  • ALBUM / TITLE: Gold & Grey
  • RELEASE YEAR / DATE: 2019
  • COUNTRY: United States
  • STYLE: Progressive Metal, Sludge Metal, Progressive Rock
  • LABEL: Abraxan Hymns
  • DURATION: 01:00:36
  • FILE FORMAT: FLAC, (tracks) 24 bits, 96 KHz
  • QUALITY: Lossless

  • RATING: 10 / 3    
  • VOTE:

  • DOWNLOAD: DOWNLOAD TORRENT
  • СИДЫ:

Torrent description



01. Front Toward Enemy
02. I'm Already Gone
03. Seasons
04. Sevens
05. Tourniquet
06. Anchor's Lament
07. Throw Me An Anchor
08. I'd Do Anything
09. Blankets Of Ash
10. Emmet - Radiating Light
11. Cold Blooded Angels
12. Crooked Mile
13. Broken Halo
14. Can Oscura
15. Borderlines
16. Assault On East Falls
17. Pale Sun

HDtracks

Источник (релизер): Last Raise

John Baizley - Vocals, Guitars (2003-present) (Razors In The Night, ex-JAB)
Nick Jost - Bass, Keyboards (2013-present)
Sebastian - Thomson Drums (2013-present) (Trans Am, Weird War)
Gina Gleason - Guitars (lead), Vocals (2017-present) (ex-Misstallica, ex-Queen Diamond, ex-The Smashing Pumpkins (live))


foobar2000 1.4.4 / Замер динамического диапазона (DR) 1.1.1
Дата отчёта: 2019-06-15 10:28:51

--------------------------------------------------------------------------------
Анализ: Baroness / Gold & Grey
--------------------------------------------------------------------------------

DR Пики RMS Продолжительность трека
--------------------------------------------------------------------------------
DR4 -0.49 дБ -5.71 дБ 3:45 01-Front Toward Enemy
DR4 -0.49 дБ -5.90 дБ 3:51 02-I'm Already Gone
DR4 -0.77 дБ -6.68 дБ 4:27 03-Seasons
DR9 -4.38 дБ -16.98 дБ 2:05 04-Sevens
DR4 -1.13 дБ -6.93 дБ 5:46 05-Tourniquet
DR10 -1.19 дБ -17.29 дБ 1:40 06-Anchor's Lament
DR3 -1.42 дБ -5.99 дБ 4:01 07-Throw Me an Anchor
DR7 -0.48 дБ -10.34 дБ 4:10 08-I'd Do Anything
DR4 -1.07 дБ -8.63 дБ 1:04 09-Blankets of Ash
DR5 -2.53 дБ -12.30 дБ 4:12 10-Emmett - Radiating Light
DR4 -0.90 дБ -9.34 дБ 5:38 11-Cold-Blooded Angels
DR11 -3.70 дБ -17.35 дБ 0:42 12-Crooked Mile
DR4 -0.85 дБ -6.16 дБ 4:24 13-Broken Halo
DR2 -2.72 дБ -7.04 дБ 2:02 14-Can Oscura
DR3 -1.31 дБ -5.98 дБ 6:16 15-Borderlines
DR10 -3.50 дБ -17.68 дБ 2:19 16-Assault on East Falls
DR3 -0.99 дБ -5.95 дБ 4:14 17-Pale Sun
--------------------------------------------------------------------------------

Количество треков: 17
Реальные значения DR: DR5

Частота: 96000 Гц
Каналов: 2
Разрядность: 24
Битрейт: 3301 кбит/с
Кодек: FLAC
================================================================================



Comments (1)


16 june 2019
Bagdee   
0 
PR:XCityXXX GBXXX GBПостовХС
В
Л
Х

Thank you



 

Similar albums

Please enable Javascript!
Пожалуйста включите Javascript, иначе данный и другие сайты могут работать не корректно! Узнать как включить Javascript можно на Google Support