Categories
Welcome to Music Torrent Tracker - Sound-Park  ι  JOIN US FOR FULL ACCESS  ι  Log In  ι  Forgot your password?

Julia Shapiro - Perfect Version (Lossless, Hi Res 2019)

Alt Rock  Indie Rock
 
Date: 16 june 2019
Added: StasOn11
Views: 548
  • ARTIST: Julia Shapiro
  • ALBUM / TITLE: Perfect Version
  • RELEASE YEAR / DATE: 2019
  • STYLE: Alternative, Indie Rock
  • LABEL: © 2019 Hardly Art
  • DURATION: 00:34:08
  • FILE FORMAT: FLAC, (tracks) 24 bits, 96 KHz
  • QUALITY: Lossless

  • RATING: 9.2 / 5    
  • VOTE:

  • DOWNLOAD: DOWNLOAD TORRENT
  • СИДЫ:

Torrent description



01. Natural (02:49)
02. Parking Lot (02:34)
03. Shape (04:05)
04. Tired (03:36)
05. Harder To Do (02:43)
06. Around The Block (03:27)
07. A Couple Highs (03:25)
08. Perfect Version (03:22)
09. I Lied (03:43)
10. Empty Cup (04:24)

Qobuz

Источник (релизер): Stephenten

When Julia Shapiro flew home from a cancelled Chastity Belt tour in April 2018, everything in her life felt out of control. Dealing with health issues, freshly out of a relationship, and in the middle of an existential crisis, she realized halfway through a tour supporting her band’s third album I Used to Spend So Much Time Alone that she was going through too much to continue. “I was really struggling; I was really depressed. I felt like I couldn’t sing or be a person,” Shapiro recalls. “At that point I couldn’t even imagine playing a show again, I was so over it.”

Returning home to a newly empty Seattle one-bedroom apartment, Shapiro had wanted for a long time to learn how to record and mix her own music, and out of the uncertainty of the future of her music career and her health, she began to record the songs that would become Perfect Version, her solo debut for Hardly Art. What she created in the space of ten songs is an intimate and beautifully self-aware examination of feeling lost in the life you’ve created for yourself. It’s an album of shimmering guitars and layered vocals that feels vast in the emotional depth it conveys and masterful in the way each song is intentionally crafted and recorded.

Throughout the record Shapiro tries on different ways of living, all thematically centered around the idea of what it would be like to be a perfect version of yourself. “How can someone be so blindly confident/I wanna know that trick,” she wonders on “Natural,” the opening track that begins using another person as a mirror and then pans back to a bigger picture: what would it take to really love yourself? The album is peppered with ideas of what self-improvement could look like—whether it’s learning a skill and living out in the woods, going to bed at a reasonable hour, or even more playful, deeply relatable lines like “I should really delete my Instagram.”

Shapiro has a knack for turning simple images into something profound, drawing influence from songwriters like Elliott Smith to capture complicated moods. The everyday act of circling the block trying to find a parking spot becomes a metaphor for trying and feeling like you can’t quite get anything done. “All my problems feel like paper/I can finally rip them up,” she sings on the title track, describing a moment of lightness in hanging out with friends who can find humor in your failure “at least I have my friends to laugh at what I’ve done.”

Over the course of a tumultuous year of trying to find stability amidst depression and surgery, Shapiro ultimately rediscovered the parts of music that she loved through the process. Her perfectionist qualities create an album that shines in tiny lyrical moments and meticulous guitar parts. “When the rest of my life felt out of control, I felt like this was my chance to be in control of everything,” says Shapiro. She plays all the instruments (save for a mouth trumpet solo by Darren Hanlon and guest violin by Annie Truscott) and after recording and mixing the first batch of four songs at the Vault studio with Ian LeSage decided to record the final six tracks alone in her apartment, adding drums in the studio later and learning to mix them with the help of her friend David Hrivnak. Perfect Version is a fully realized vision from a gifted songwriter finding a more intimate voice. “So what comes next?” she questions on the album closer “Empty Cup” which explores the quiet satisfaction of being alone with yourself and creating a blank slate. “A lasting sense of self,” she concludes.



foobar2000 1.4 / Dynamic Range Meter 1.1.1
log date: 2019-06-15 09:02:49

--------------------------------------------------------------------------------
Analyzed: Julia Shapiro / Perfect Version
--------------------------------------------------------------------------------

DR Peak RMS Duration Track
--------------------------------------------------------------------------------
DR9 -0.46 dB -10.85 dB 2:49 01-Natural
DR9 -0.50 dB -12.24 dB 2:34 02-Parking Lot
DR10 -0.50 dB -12.60 dB 4:06 03-Shape
DR11 -0.57 dB -14.00 dB 3:36 04-Tired
DR8 -0.50 dB -10.85 dB 2:44 05-Harder to Do
DR9 -0.50 dB -11.49 dB 3:28 06-Around the Block
DR9 -0.50 dB -11.35 dB 3:26 07-A Couple Highs
DR10 -1.12 dB -13.23 dB 3:22 08-Perfect Version
DR10 -0.50 dB -11.37 dB 3:44 09-I Lied
DR10 -0.78 dB -12.43 dB 4:24 10-Empty Cup
--------------------------------------------------------------------------------

Number of tracks: 10
Official DR value: DR10
Samplerate: 96000 Hz
Channels: 2
Bits per sample: 24
Bitrate: 2555 kbps
Codec: FLAC
================================================================================



Comments (3)


18 june 2019
Vindria   
0 
PR:XCityXXX GBXXX GBПостовХС
В
Л
Х

Thank you! ñ.ñ


16 june 2019
luckydsy   
0 
PR:XCityXXX GBXXX GBПостовХС
В
Л
Х

Thanks much!


16 june 2019
Bagdee   
0 
PR:XCityXXX GBXXX GBПостовХС
В
Л
Х

Thank you



 

Please enable Javascript!
Пожалуйста включите Javascript, иначе данный и другие сайты могут работать не корректно! Узнать как включить Javascript можно на Google Support