Categories
Welcome to Music Torrent Tracker - Sound-Park  ι  JOIN US FOR FULL ACCESS  ι  Log In  ι  Forgot your password?

Avi Rosenfeld - In The Air (Lossless, Hi Res 2019)

Classic Rock
 
Date: 16 june 2019
Added: StasOn11
Views: 557
  • ARTIST: Avi Rosenfeld
  • ALBUM / TITLE: In The Air
  • RELEASE YEAR / DATE: 2019
  • COUNTRY: Israel
  • STYLE: Classic Rock
  • DURATION: 00:39:35
  • FILE FORMAT: FLAC, (tracks) 16-24 bits, 44,1 KHz
  • QUALITY: Lossless
  • Site: avirosenfeld.wixsite.com

  • RATING: 9.83 / 6    
  • VOTE:

  • DOWNLOAD: DOWNLOAD TORRENT
  • СИДЫ:

Torrent description



◈ 01 - When You'll Be Born (00:04:08)
◈ 02 - Do You Remember Me (00:03:35)
◈ 03 - Don Quixote (00:03:48)
◈ 04 - In The Air (00:03:35)
◈ 05 - Beyahad (Together) (00:03:52)
◈ 06 - Makom (Place) (00:03:45)
◈ 07 - Walk Alone In The Night Time (00:04:37)
◈ 08 - Sabale (Grandpa) (00:03:27)
◈ 09 - Eize Ayefut (So Tired) (00:04:39)
◈ 10 - Snowflakes (00:04:05)

Bandcamp

Источник (релизер): ЯОR


foobar2000 1.4.2 / Dynamic Range Meter 1.1.1
log date: 2019-06-01 16:36:05

--------------------------------------------------------------------------------
Analyzed: Avi Rosenfeld / In The Air
--------------------------------------------------------------------------------

DR Peak RMS Duration Track
--------------------------------------------------------------------------------
DR6 -0.26 dB -7.13 dB 4:09 01-When You'll Be Born
DR8 -0.26 dB -8.84 dB 3:35 02-Do You Remember Me
--------------------------------------------------------------------------------

Number of tracks: 2
Official DR value: DR7

Samplerate: 44100 Hz
Channels: 2
Bits per sample: 24
Bitrate: 1082 kbps
Codec: FLAC
================================================================================

--------------------------------------------------------------------------------
Statistics for: 03-Don Quixote
Number of samples: 10064491
Duration: 3:48
--------------------------------------------------------------------------------

Left Right

Peak Value: -0.26 dB --- -0.26 dB
Avg RMS: -6.53 dB --- -6.92 dB
DR channel: 5.38 dB --- 5.74 dB
--------------------------------------------------------------------------------

Official DR Value: DR6

Samplerate: 44100 Hz
Channels: 2
Bits per sample: 16
Bitrate: 1059 kbps
Codec: FLAC
================================================================================
--------------------------------------------------------------------------------
Statistics for: 04-In The Air
Number of samples: 9500574
Duration: 3:35
--------------------------------------------------------------------------------

Left Right

Peak Value: -0.26 dB --- -0.26 dB
Avg RMS: -7.17 dB --- -7.10 dB
DR channel: 5.61 dB --- 5.44 dB
--------------------------------------------------------------------------------

Official DR Value: DR6

Samplerate: 44100 Hz
Channels: 2
Bits per sample: 24
Bitrate: 931 kbps
Codec: FLAC
================================================================================
--------------------------------------------------------------------------------
Statistics for: 05-Beyahad (Together)
Number of samples: 10266083
Duration: 3:53
--------------------------------------------------------------------------------

Left Right

Peak Value: -0.26 dB --- -0.26 dB
Avg RMS: -8.05 dB --- -8.00 dB
DR channel: 6.85 dB --- 6.79 dB
--------------------------------------------------------------------------------

Official DR Value: DR7

Samplerate: 44100 Hz
Channels: 2
Bits per sample: 16
Bitrate: 955 kbps
Codec: FLAC
================================================================================
--------------------------------------------------------------------------------
Analyzed: Avi Rosenfeld / In The Air
--------------------------------------------------------------------------------

DR Peak RMS Duration Track
--------------------------------------------------------------------------------
DR7 -0.27 dB -8.59 dB 3:46 06-Makom (Place)
DR7 -0.26 dB -8.89 dB 4:38 07-Walk Alone In The Night Time
--------------------------------------------------------------------------------

Number of tracks: 2
Official DR value: DR7

Samplerate: 44100 Hz
Channels: 2
Bits per sample: 24
Bitrate: 987 kbps
Codec: FLAC
================================================================================

--------------------------------------------------------------------------------
Statistics for: 08-Sabale (Grandpa)
Number of samples: 9147233
Duration: 3:27
--------------------------------------------------------------------------------

Left Right

Peak Value: -0.26 dB --- -0.26 dB
Avg RMS: -7.71 dB --- -7.53 dB
DR channel: 6.00 dB --- 5.85 dB
--------------------------------------------------------------------------------

Official DR Value: DR6

Samplerate: 44100 Hz
Channels: 2
Bits per sample: 16
Bitrate: 819 kbps
Codec: FLAC
================================================================================
--------------------------------------------------------------------------------
Analyzed: Avi Rosenfeld / In The Air
--------------------------------------------------------------------------------

DR Peak RMS Duration Track
--------------------------------------------------------------------------------
DR6 -0.26 dB -7.39 dB 4:39 09-Eize Ayefut (So Tired)
DR5 -0.26 dB -6.59 dB 4:05 10-Snowflakes
--------------------------------------------------------------------------------

Number of tracks: 2
Official DR value: DR6

Samplerate: 44100 Hz
Channels: 2
Bits per sample: 24
Bitrate: 909 kbps
Codec: FLAC
================================================================================



Comments (3)


26 june 2019
FETR75   
0 
PR:XCityXXX GBXXX GBПостовХС
В
Л
Х

Super!


16 june 2019
Bagdee   
0 
PR:XCityXXX GBXXX GBПостовХС
В
Л
Х

Thank you


16 june 2019
ovel1109   
+2 
PR:XCityXXX GBXXX GBПостовХС
В
Л
Х

Молодец Ави, потенциала хватает , по три альбома за раз выдает! А главное-все интересные и вокал стал лучше!



 

Similar albums

+ More
Please enable Javascript!
Пожалуйста включите Javascript, иначе данный и другие сайты могут работать не корректно! Узнать как включить Javascript можно на Google Support