Categories
Welcome to Music Torrent Tracker - Sound-Park  ι  JOIN US FOR FULL ACCESS  ι  Log In  ι  Forgot your password?

VA - Ruf Records: 25 Years Anniversary (Lossless, Hi Res 2019)

Blues  Blues-rock
 
Date: 16 june 2019
Added: StasOn11
Views: 678
  • ARTIST: VA
  • ALBUM / TITLE: Ruf Records: 25 Years Anniversary
  • RELEASE YEAR / DATE: 2019
  • COUNTRY: International
  • STYLE: Blues, Blues Rock
  • LABEL: (C) 2019 Ruf Records
  • DURATION: 00:53:21
  • FILE FORMAT: FLAC, (tracks) 24 bits, 44,1 KHz
  • QUALITY: Lossless

  • RATING: 10 / 3    
  • VOTE:

  • DOWNLOAD: DOWNLOAD TORRENT
  • СИДЫ:

Torrent description



01. Texas Honey (Ally Venable)
02. Straitjacket (Jeremiah Johnson)
03. Backdoor Man (Bernard Allison)
04. Chills & Fever (Samantha Fish)
05. Low Down (The BB King Blues Band)
06. Deep In My Soul (Big Daddy Wilson)
07. First Class Life (Mike Zito)
08. Hard Working Woman (Vanja Sky)
09. Why Did You Hoodoo Me (Savoy Brown)
10. Weeds (Michael Lee)
11. Get Mine (Ina Forsman)
12. Boogie Depression (Victor Wainwright)
13. She’s Coming After You (Katarina Pejak)
14. Faker (The Ragtime Rumours)

Highresaudio

Источник (релизер): Stephenten

Pop the champagne: Ruf Records is 25. A lot has changed in rock ‘n’ roll since 1994. We’ve seen a thousand bands rise and fall. We’ve watched a hundred rock scenes blow up and burn out. All the while, Ruf has steadily evolved, from its roots as one man’s vision, to the most respected blues/rock label around, with a roll-call of talent to top any independent on the planet. And if that sounds like a bold statement, you’re holding the proof in your hands…

Of course, Thomas Ruf didn’t expect any of those accolades back in 1994. Back then, Ruf’s charismatic founder and leader created the label simply to give the legendary Chicago bandleader Luther Allison a platform to release some of the best albums of his career. Tragically, Luther himself was lost to cancer in 1997, but Ruf Records never missed a beat, continuing to develop some of the brightest talent in America, Britain, Europe and beyond, while always retaining its fearsomely independent spirit.

Walter Trout, Royal Southern Brotherhood, Joanne Shaw Taylor, Mike Zito, Jeff Healey, Savoy Brown, Dana Fuchs, Bernard Allison, Samantha Fish and many more. To anyone with even a passing interest in quality blues, the Ruf roster since 1994 reads like a hall of fame, taking in legends, supergroups and bright young talents. As such, when it came to compiling this special 25th anniversary release, the songs selected by Thomas across all killer, no filler.
So here it is. Twenty-six classic tracks by Ruf artists celebrating the brightest and best records of the label since 1994.
Twenty-five years. It’s been quite a ride, with one hell of a soundtrack. So here’s to the story so far – and the next twenty-five years...

foobar2000 1.4 / Dynamic Range Meter 1.1.1
log date: 2019-06-15 16:27:30

--------------------------------------------------------------------------------
Analyzed: Ally Venable / 25 Years Anniversary (1)
Bernard Allison / 25 Years Anniversary (2)
Big Daddy Wilson / 25 Years Anniversary (3)
Ina Forsman / 25 Years Anniversary (4)
Jeremiah Johnson / 25 Years Anniversary (5)
Katarina Pejak / 25 Years Anniversary (6)
Michael Lee / 25 Years Anniversary (7)
Mike Zito / 25 Years Anniversary (8)
Samantha Fish / 25 Years Anniversary (9)
Savoy Brown / 25 Years Anniversary (10)
The BB King Blues Band / 25 Years Anniversary (11)
The Ragtime Rumours / 25 Years Anniversary (12)
Vanja Sky / 25 Years Anniversary (13)
Victor Wainwright / 25 Years Anniversary (14)
--------------------------------------------------------------------------------

DR Peak RMS Duration Track
--------------------------------------------------------------------------------
DR5 -1.01 dB -7.48 dB 2:28 01-Texas Honey
DR8 -2.07 dB -10.53 dB 3:50 03-Backdoor Man
DR9 -0.99 dB -11.45 dB 4:38 06-Deep in My Soul
DR7 -1.01 dB -9.55 dB 4:00 11-Get Mine
DR9 -0.50 dB -10.31 dB 4:12 02-Straitjacket
DR9 -0.51 dB -10.69 dB 3:31 13-She's Coming After You
DR6 -2.28 dB -8.63 dB 2:52 10-Weeds
DR8 -0.50 dB -9.12 dB 4:03 07-First Class Life
DR8 -1.69 dB -9.84 dB 3:20 04-Chills & Fever
DR5 -1.48 dB -7.54 dB 5:13 09-Why Did You Hoodoo Me
DR7 -2.22 dB -10.27 dB 4:41 05-Low Down
DR6 -1.06 dB -10.60 dB 4:09 14-Faker
DR6 -0.98 dB -7.83 dB 2:54 08-Hard Working Woman
DR7 -0.51 dB -9.26 dB 3:32 12-Boogie Depression
--------------------------------------------------------------------------------

Number of tracks: 14
Official DR value: DR7
Samplerate: 44100 Hz
Channels: 2
Bits per sample: 24
Bitrate: 1697 kbps
Codec: FLAC
================================================================================



Comments (3)


17 june 2019
H3llogu3st   
0 
PR:XCityXXX GBXXX GBПостовХС
В
Л
Х

Thanks for the share


16 june 2019
Bagdee   
+1 
PR:XCityXXX GBXXX GBПостовХС
В
Л
Х

Thank you


16 june 2019
chinchetas3q   
+1 
PR:XCityXXX GBXXX GBПостовХС
В
Л
Х

Muchas gracias!!



 

Similar albums

Please enable Javascript!
Пожалуйста включите Javascript, иначе данный и другие сайты могут работать не корректно! Узнать как включить Javascript можно на Google Support