Categories
Welcome to Music Torrent Tracker - Sound-Park  ι  JOIN US FOR FULL ACCESS  ι  Log In  ι  Forgot your password?

VA - Woodstock 50 - Back To The Garden: The Anniversary Experience Day 1 (Lossless, Hi Res 2019)

Classic Rock
 
Date: 6 july 2019
Added: StasOn11
Views: 3920
  • ARTIST: VA
  • ALBUM / TITLE: Woodstock 50 - Back To The Garden: The Anniversary Experience Day 1 (Remastered, Bethel, NY, 8.15.1969)
  • RELEASE YEAR / DATE: 2019
  • COUNTRY: International
  • STYLE: Classic Rock
  • LABEL: Rhino Atlantic
  • DURATION: 02:20:29
  • FILE FORMAT: FLAC, (tracks) 24 bits, 48 KHz
  • QUALITY: Lossless

  • RATING: 10 / 10    
  • VOTE:

  • DOWNLOAD: DOWNLOAD TORRENT
  • СИДЫ:

Torrent description



01. "Hello"
02. From The Prison / Get Together / From The Prison
03. High Flying Bird 04. With A Little Help From My Friends
05. Handsome Johnny
06. Freedom
07. "It seems there are a few cars blocking the road" Mix)00:40
08. Look Out
09. Day Song
10. Two Worlds
11. Jennifer
12. And When It's Over
13. America
14. Smile
15. "Let's see how bright it can be"
16. How Can We Hang On To A Dream
17. If I Were A Carpenter
18. Reason To Believe
19. Misty Roses
20. "We're a pretty big city right now"
21. "Somebody, somewhere is giving out some flat blue acid"
22. Raga Manj Kmahaj
23. Momma Momma
24. Beautiful People
25. Mr. Tambourine Man

MORE


HA

Источник (релизер): Stephenten
Between August 15-18, 1969, more than 400,000 people converged on Max Yasgur’s 600-acre dairy farm in upstate New York for Woodstock. Thirty-two acts performed including some of the most popular and influential musicians of the era such as Joan Baez, The Band, Crosby, Stills, Nash & Young, Creedence Clearwater Revival, Grateful Dead, Jimi Hendrix, Janis Joplin, Jefferson Airplane, Santana, Sly and the Family Stone, and The Who.

WOODSTOCK – BACK TO THE GARDEN – 50th ANNIVERSARY EXPERIENCE features 162 tracks recorded at the legendary festival. It is the first Woodstock collection to feature live recordings of every performer at the festival.

BACK TO THE GARDEN is intended to let people hear the festival as it really happened. Producer Andy Zax says he, sound producer Brian Kehew and mastering engineer Dave Schultz avoided interfering with the tapes as much as possible in order to preserve their authenticity. “It’s not surprising that other producers’ first reaction to these tapes over the years has been ‘uh-oh,’ immediately followed by ‘we’ve gotta find a way to fix this.’ I'm not unsympathetic to that approach, but if there's a single overriding lesson that Brian Kehew and I have learned since we began working with the Woodstock tapes in 2005, it’s this: you can't fix them… That’s less grim than it seems, because once you’ve accepted the idea that there is no way to make these recordings sound slick, you realize that these tapes are the sonic equivalent of heirloom tomatoes — slightly imperfect, but delicious.”


foobar2000 1.4 / Dynamic Range Meter 1.1.1
log date: 2019-07-04 22:51:27

--------------------------------------------------------------------------------
Analyzed: Arlo Guthrie / Woodstock 50 - Back To The Garden: The Anniversary Experience Day 1 (Live at Woodstock, Bethel, NY, 8/15/1969) (1-5)
Bert Sommer / Woodstock 50 - Back To The Garden: The Anniversary Experience Day 1 (Live at Woodstock, Bethel, NY, 8/15/1969) (6-9)
Joan Baez / Woodstock 50 - Back To The Garden: The Anniversary Experience Day 1 (Live at Woodstock, Bethel, NY, 8/15/1969) (10-14)
John Morris / Woodstock 50 - Back To The Garden: The Anniversary Experience Day 1 (Live at Woodstock, Bethel, NY, 8/15/1969) (15-21)
Melanie / Woodstock 50 - Back To The Garden: The Anniversary Experience Day 1 (Live at Woodstock, Bethel, NY, 8/15/1969) (22-25)
Ravi Shankar / Woodstock 50 - Back To The Garden: The Anniversary Experience Day 1 (Live at Woodstock, Bethel, NY, 8/15/1969) (26)
Richie Havens / Woodstock 50 - Back To The Garden: The Anniversary Experience Day 1 (Live at Woodstock, Bethel, NY, 8/15/1969) (27-32)
Sweetwater / Woodstock 50 - Back To The Garden: The Anniversary Experience Day 1 (Live at Woodstock, Bethel, NY, 8/15/1969) (33-35)
Tim Hardin / Woodstock 50 - Back To The Garden: The Anniversary Experience Day 1 (Live at Woodstock, Bethel, NY, 8/15/1969) (36-39)
--------------------------------------------------------------------------------

DR Peak RMS Duration Track
--------------------------------------------------------------------------------
DR11 -4.35 dB -18.34 dB 3:27 28-Coming Into Los Angeles (Live at Woodstock, Bethel, NY, 8/16/1969) [2019 Mix]
DR12 -9.19 dB -25.24 dB 0:37 29-Lotta freaks! (Live at Woodstock, Bethel, NY, 8/16/1969) [2019 Mix]
DR13 -2.89 dB -20.58 dB 2:31 30-Wheel Of Fortune (Live at Woodstock, Bethel, NY, 8/16/1969) [2019 Mix]
DR14 -4.24 dB -21.42 dB 4:28 31-Walking Down The Line (Live at Woodstock, Bethel, NY, 8/16/1969) [2019 Mix]
DR14 -4.41 dB -20.62 dB 1:48 32-Every Hand In The Land (Live at Woodstock, Bethel, NY, 8/16/1969) [2019 Mix]
DR13 -3.18 dB -20.63 dB 3:05 11-Jennifer (Live at Woodstock, Bethel, NY, 8/15/1969) [2019 Mix]
DR12 -1.59 dB -19.21 dB 3:08 12-And When It's Over (Live at Woodstock, Bethel, NY, 8/15/1969) [2019 Mix]
DR14 -1.31 dB -20.32 dB 3:31 13-America (Live at Woodstock, Bethel, NY, 8/15/1969) [2019 Mix]
DR10 -2.57 dB -16.42 dB 4:15 14-Smile (Live at Woodstock, Bethel, NY, 8/15/1969) [2019 Mix]
DR12 -3.68 dB -20.63 dB 3:52 34-The Last Thing On My Mind (Live at Woodstock, Bethel, NY, 8/16/1969) [2019 Mix]
DR13 -3.20 dB -19.43 dB 3:48 35-I Shall Be Released (Live at Woodstock, Bethel, NY, 8/16/1969) [2019 Mix]
DR17 -4.36 dB -23.50 dB 3:01 36-He already had a very, very good hunger strike going (Live at Woodstock, Bethel, NY, 8/16/1969) [2019 Mix]
DR12 -4.47 dB -19.26 dB 2:46 37-Joe Hill (Live at Woodstock, Bethel, NY, 8/16/1969) [2019 Mix]
DR14 -3.86 dB -20.49 dB 2:47 38-Drug Store Truck Drivin' Man (feat. Jeffrey Shurtleff) [Live at Woodstock, Bethel, NY, 8/16/1969] [2019 Mix]
DR15 -10.59 dB -30.47 dB 0:40 07-It seems there are a few cars blocking the road (Live at Woodstock, Bethel, NY, 8/15/1969) [2019 Mix]
DR15 -6.94 dB -26.10 dB 2:55 15-Let's see how bright it can be (Live at Woodstock, Bethel, NY, 8/15/1969) [2019 Mix]
DR13 -9.17 dB -25.16 dB 4:00 20-We're a pretty big city right now (Live at Woodstock, Bethel, NY, 8/15/1969) [2019 Mix]
DR11 -13.23 dB -27.53 dB 0:51 21-Somebody, somewhere is giving out some flat blue acid (Live at Woodstock, Bethel, NY, 8/15/1969) [2019 Mix]
DR15 -11.69 dB -29.92 dB 1:33 27-It's a free concert from now on (Live at Woodstock, Bethel, NY, 8/16/1969) [2019 Mix]
DR14 -11.70 dB -28.15 dB 0:46 33-Let's just make the festival, not the other stuff (Live at Woodstock, Bethel, NY, 8/16/1969) [2019 Mix]
DR16 -4.69 dB -27.50 dB 0:55 39-That brings us fairly close to the dawn (Live at Woodstock, Bethel, NY, 8/16/1969) [2019 Mix]
DR10 -4.73 dB -18.86 dB 3:46 23-Momma Momma (Live at Woodstock, Bethel, NY, 8/16/1969) [2019 Mix]
DR14 -5.31 dB -23.76 dB 4:02 24-Beautiful People (Live at Woodstock, Bethel, NY, 8/16/1969) [2019 Mix]
DR11 -7.06 dB -21.42 dB 2:24 25-Mr. Tambourine Man (Live at Woodstock, Bethel, NY, 8/16/1969) [2019 Mix]
DR10 -9.33 dB -23.04 dB 3:37 26-Birthday Of The Sun (Live at Woodstock, Bethel, NY, 8/16/1969) [2019 Mix]
DR13 -2.18 dB -18.08 dB 17:48 22-Raga Manj Kmahaj (Live at Woodstock, Bethel, NY, 8/16/1969) [2019 Mix]
DR18 -1.56 dB -24.97 dB 1:17 01-Hello (Live at Woodstock, Bethel, NY, 8/15/1969) [2019 Mix]
DR16 -2.11 dB -21.90 dB 4:33 02-From The Prison / Get Together / From The Prison (Live at Woodstock, Bethel, NY, 8/15/1969) [2019 Mix]
DR14 -1.63 dB -19.11 dB 4:24 03-High Flying Bird (Live at Woodstock, Bethel, NY, 8/15/1969) [2019 Mix]
DR16 -1.18 dB -21.59 dB 3:31 04-With A Little Help From My Friends (Live at Woodstock, Bethel, NY, 8/15/1969) [2019 Mix]
DR13 -1.16 dB -18.63 dB 4:49 05-Handsome Johnny (Live at Woodstock, Bethel, NY, 8/15/1969) [2019 Mix]
DR13 -2.23 dB -18.49 dB 5:15 06-Freedom (Live at Woodstock, Bethel, NY, 8/15/1969) [2019 Mix]
DR13 -1.21 dB -18.29 dB 4:05 08-Look Out (Live at Woodstock, Bethel, NY, 8/15/1969) [2019 Mix]
DR15 -4.38 dB -24.17 dB 1:53 09-Day Song (Live at Woodstock, Bethel, NY, 8/15/1969) [2019 Mix]
DR13 -2.80 dB -20.66 dB 6:14 10-Two Worlds (Live at Woodstock, Bethel, NY, 8/15/1969) [2019 Mix]
DR12 -2.24 dB -18.18 dB 4:06 16-How Can We Hang On To A Dream (Live at Woodstock, Bethel, NY, 8/15/1969) [2019 Mix]
DR14 -2.20 dB -20.63 dB 5:19 17-If I Were A Carpenter (Live at Woodstock, Bethel, NY, 8/15/1969) [2019 Mix]
DR15 -2.13 dB -21.82 dB 4:28 18-Reason To Believe (Live at Woodstock, Bethel, NY, 8/15/1969) [2019 Mix]
DR15 -1.58 dB -20.86 dB 4:34 19-Misty Roses (Live at Woodstock, Bethel, NY, 8/15/1969) [2019 Mix]
--------------------------------------------------------------------------------

Number of tracks: 39
Official DR value: DR13
Samplerate: 48000 Hz
Channels: 2
Bits per sample: 24
Bitrate: 1481 kbps
Codec: FLAC
================================================================================



Comments (13)


10 july 2019
quimgeoav   
0 
PR:XCityXXX GBXXX GBПостовХС
В
Л
Х

Obrigado


9 july 2019
StasOn11   
0 
PR:XCityXXX GBXXX GBПостовХС
В
Л
Х

Citation:  Ramir
Спасибо

Спасибо за "Спасибо"!


9 july 2019
Ramir   
+2 
PR:XCityXXX GBXXX GBПостовХС
В
Л
Х

Спасибо


9 july 2019
Apyaqui   
+1 
PR:XCityXXX GBXXX GBПостовХС
В
Л
Х

Nice,thank you


9 july 2019
FREDZAPPA   
+1 
PR:XCityXXX GBXXX GBПостовХС
В
Л
Х

yo tenía 10 años y Woodstock me revolucionó el cerebro. Gracias por compartir


8 july 2019
Epifanio1963   
+1 
PR:XCityXXX GBXXX GBПостовХС
В
Л
Х

Gracias


7 july 2019
meloman50   
+1 
PR:XCityXXX GBXXX GBПостовХС
В
Л
Х

Danke....


7 july 2019
StasOn11   
+1 
PR:XCityXXX GBXXX GBПостовХС
В
Л
Х

Citation:  Radja
СПАСИБО !!!!!!!!!!!!!

Благодарю за "Спасибо"!


7 july 2019
trader_01   
+1 
PR:XCityXXX GBXXX GBПостовХС
В
Л
Х

genau so !!!


7 july 2019
Radja   
+1 
PR:XCityXXX GBXXX GBПостовХС
В
Л
Х

СПАСИБО !!!!!!!!!!!!!


+ More
 

Similar albums

Please enable Javascript!
Пожалуйста включите Javascript, иначе данный и другие сайты могут работать не корректно! Узнать как включить Javascript можно на Google Support