Categories
Welcome to Music Torrent Tracker - Sound-Park  ι  JOIN US FOR FULL ACCESS  ι  Log In  ι  Forgot your password?

VA - Woodstock 50 - Back To The Garden: The Anniversary Experience Day 2 (Lossless, Hi Res 2019)

Classic Rock
 
Date: 6 july 2019
Added: StasOn11
Views: 1974
  • ARTIST: VA
  • ALBUM / TITLE: Woodstock 50 - Back To The Garden: The Anniversary Experience Day 2 (Remastered, Bethel, NY, 8.16.1969)
  • RELEASE YEAR / DATE: 2019
  • COUNTRY: International
  • STYLE: Classic Rock
  • LABEL: Rhino Atlantic
  • DURATION: 05:45:24
  • FILE FORMAT: FLAC, (tracks) 24 bits, 48 KHz
  • QUALITY: Lossless

  • RATING: 10 / 5    
  • VOTE:

  • DOWNLOAD: DOWNLOAD TORRENT
  • СИДЫ:

Torrent description



01. "I guess the reason we're here is music"
02. They Live The Life
03. That's How I Eat
04. "Can those of you in the back hear well?"
05. Janis
06. Donovan's Reef
07. The "Fish" Cheer / I-Feel-Like-I'm-Fixin'-To-Die Rag
08. "Those wishing to be lost, those wishing to be found"
09. Savor
10. Jingo
11. Persuasion
12. Soul Sacrifice
13. "An exciting set is understandable"
14. How Have You Been
15. Rainbows All Over Your Blues
16. I Had A Dream
17. Darling Be Home Soon
18. Halfbreed Medley: Sinning For You / Leaving Trunk / Just To Cry / Sinning For You
19. "Bring Jerry's nitroglycerin pills to the Indian Pavilion"
20. "Go to Mr. Lang's office right away"
21. Invocation
22. The Letter
23. Gather 'Round
24. When You Find Out Who You Are
25. "If things aren't going well for you or whatever"

MORE


HA

Источник (релизер): Stephenten
Between August 15-18, 1969, more than 400,000 people converged on Max Yasgur’s 600-acre dairy farm in upstate New York for Woodstock. Thirty-two acts performed including some of the most popular and influential musicians of the era such as Joan Baez, The Band, Crosby, Stills, Nash & Young, Creedence Clearwater Revival, Grateful Dead, Jimi Hendrix, Janis Joplin, Jefferson Airplane, Santana, Sly and the Family Stone, and The Who.

WOODSTOCK – BACK TO THE GARDEN – 50th ANNIVERSARY EXPERIENCE features 162 tracks recorded at the legendary festival. It is the first Woodstock collection to feature live recordings of every performer at the festival.

BACK TO THE GARDEN is intended to let people hear the festival as it really happened. Producer Andy Zax says he, sound producer Brian Kehew and mastering engineer Dave Schultz avoided interfering with the tapes as much as possible in order to preserve their authenticity. “It’s not surprising that other producers’ first reaction to these tapes over the years has been ‘uh-oh,’ immediately followed by ‘we’ve gotta find a way to fix this.’ I'm not unsympathetic to that approach, but if there's a single overriding lesson that Brian Kehew and I have learned since we began working with the Woodstock tapes in 2005, it’s this: you can't fix them… That’s less grim than it seems, because once you’ve accepted the idea that there is no way to make these recordings sound slick, you realize that these tapes are the sonic equivalent of heirloom tomatoes — slightly imperfect, but delicious.”


foobar2000 1.4 / Dynamic Range Meter 1.1.1
log date: 2019-07-04 23:41:49

--------------------------------------------------------------------------------
Analyzed: Abbie Hoffman & Pete Townshend / Woodstock 50 - Back To The Garden: The Anniversary Experience Day 2 (Live at Woodstock, Bethel, NY, 8/16/1969) (1)
Abbie Hoffman & stagehand / Woodstock 50 - Back To The Garden: The Anniversary Experience Day 2 (Live at Woodstock, Bethel, NY, 8/16/1969) (2)
Bob Hite & Chip Monck / Woodstock 50 - Back To The Garden: The Anniversary Experience Day 2 (Live at Woodstock, Bethel, NY, 8/16/1969) (3)
Canned Heat / Woodstock 50 - Back To The Garden: The Anniversary Experience Day 2 (Live at Woodstock, Bethel, NY, 8/16/1969) (4-6)
Chip Monck & Hugh Romney / Woodstock 50 - Back To The Garden: The Anniversary Experience Day 2 (Live at Woodstock, Bethel, NY, 8/16/1969) (7)
Chip Monck & Joshua White / Woodstock 50 - Back To The Garden: The Anniversary Experience Day 2 (Live at Woodstock, Bethel, NY, 8/16/1969) (8)
Chip Monck / Woodstock 50 - Back To The Garden: The Anniversary Experience Day 2 (Live at Woodstock, Bethel, NY, 8/16/1969) (9-18)
Country Joe McDonald / Woodstock 50 - Back To The Garden: The Anniversary Experience Day 2 (Live at Woodstock, Bethel, NY, 8/16/1969) (19-21)
Creedence Clearwater Revival / Woodstock 50 - Back To The Garden: The Anniversary Experience Day 2 (Live at Woodstock, Bethel, NY, 8/16/1969) (22-24)
Janis Joplin / Woodstock 50 - Back To The Garden: The Anniversary Experience Day 2 (Live at Woodstock, Bethel, NY, 8/16/1969) (25-29)
Jefferson Airplane / Woodstock 50 - Back To The Garden: The Anniversary Experience Day 2 (Live at Woodstock, Bethel, NY, 8/16/1969) (30-37)
John Morris / Woodstock 50 - Back To The Garden: The Anniversary Experience Day 2 (Live at Woodstock, Bethel, NY, 8/16/1969) (38-39)
John Sebastian / Woodstock 50 - Back To The Garden: The Anniversary Experience Day 2 (Live at Woodstock, Bethel, NY, 8/16/1969) (40-43)
Keef Hartley Band / Woodstock 50 - Back To The Garden: The Anniversary Experience Day 2 (Live at Woodstock, Bethel, NY, 8/16/1969) (44)
Ken Babbs, Country Joe McDonald / Woodstock 50 - Back To The Garden: The Anniversary Experience Day 2 (Live at Woodstock, Bethel, NY, 8/16/1969) (45)
Ken Babbs / Woodstock 50 - Back To The Garden: The Anniversary Experience Day 2 (Live at Woodstock, Bethel, NY, 8/16/1969) (46)
Mountain / Woodstock 50 - Back To The Garden: The Anniversary Experience Day 2 (Live at Woodstock, Bethel, NY, 8/16/1969) (47-50)
Quill / Woodstock 50 - Back To The Garden: The Anniversary Experience Day 2 (Live at Woodstock, Bethel, NY, 8/16/1969) (51-52)
Santana / Woodstock 50 - Back To The Garden: The Anniversary Experience Day 2 (Live at Woodstock, Bethel, NY, 8/16/1969) (53-56)
Sly And The Family Stone / Woodstock 50 - Back To The Garden: The Anniversary Experience Day 2 (Live at Woodstock, Bethel, NY, 8/16/1969) (57)
The Grateful Dead / Woodstock 50 - Back To The Garden: The Anniversary Experience Day 2 (Live at Woodstock, Bethel, NY, 8/16/1969) (58-60)
The Incredible String Band / Woodstock 50 - Back To The Garden: The Anniversary Experience Day 2 (Live at Woodstock, Bethel, NY, 8/16/1969) (61-64)
The Who / Woodstock 50 - Back To The Garden: The Anniversary Experience Day 2 (Live at Woodstock, Bethel, NY, 8/16/1969) (65-69)
--------------------------------------------------------------------------------

DR Peak RMS Duration Track
--------------------------------------------------------------------------------
DR11 -4.36 dB -24.23 dB 0:31 57-I can dig it (Live at Woodstock, Bethel, NY, 8/17/1969) [2019 Mix]
DR15 -8.02 dB -27.68 dB 0:35 54-Are you supposed to be up there rapping? No, man (Live at Woodstock, Bethel, NY, 8/17/1969) [2019 Mix]
DR13 -3.72 dB -21.02 dB 1:27 28-Can we have a little juice on this other microphone, please? (Live at Woodstock, Bethel, NY, 8/16/1969) [2019 Mix]
DR10 -2.14 dB -15.25 dB 4:46 26-Going Up The Country (Live at Woodstock, Bethel, NY, 8/16/1969) [2019 Mix]
DR12 -0.87 dB -16.56 dB 29:02 27-Woodstock Boogie (Live at Woodstock, Bethel, NY, 8/16/1969) [2019 Mix]
DR10 -1.96 dB -14.39 dB 10:54 29-On The Road Again (Live at Woodstock, Bethel, NY, 8/16/1969) [2019 Mix]
DR13 -9.39 dB -25.76 dB 2:47 25-If things aren't going well for you or whatever (Live at Woodstock, Bethel, NY, 8/16/1969) [2019 Mix]
DR16 -5.14 dB -25.65 dB 2:30 36-Open your eyes wide (Live at Woodstock, Bethel, NY, 8/16/1969) [2019 Mix]
DR15 -10.96 dB -31.18 dB 1:47 04-Can those of you in the back hear well? (Live at Woodstock, Bethel, NY, 8/16/1969) [2019 Mix]
DR9 -12.87 dB -26.22 dB 0:30 08-Those wishing to be lost, those wishing to be found (Live at Woodstock, Bethel, NY, 8/16/1969) [2019 Mix]
DR12 -11.85 dB -26.39 dB 0:14 13-An exciting set is understandable (Live at Woodstock, Bethel, NY, 8/16/1969) [2019 Mix]
DR14 -9.88 dB -29.36 dB 1:58 19-Bring Jerry's nitroglycerin pills to the Indian Pavilion (Live at Woodstock, Bethel, NY, 8/16/1969) [2019 Mix]
DR15 -7.43 dB -28.52 dB 1:15 20-Go to Mr. Lang's office right away (Live at Woodstock, Bethel, NY, 8/16/1969) [2019 Mix]
DR16 -4.35 dB -24.81 dB 2:06 30-It's your own trip (Live at Woodstock, Bethel, NY, 8/16/1969) [2019 Mix]
DR16 -7.52 dB -29.07 dB 2:30 31-We'll take care of that right away (Live at Woodstock, Bethel, NY, 8/16/1969) [2019 Mix]
DR18 -11.30 dB -35.91 dB 1:05 46-It's going to be a very long evening (Live at Woodstock, Bethel, NY, 8/17/1969) [2019 Mix]
DR13 -6.27 dB -24.15 dB 0:42 52-Just in case you should get any ideas about leaving (Live at Woodstock, Bethel, NY, 8/17/1969) [2019 Mix]
DR15 -7.11 dB -29.15 dB 0:54 61-Welcome this new day (Live at Woodstock, Bethel, NY, 8/17/1969) [2019 Mix]
DR15 -2.81 dB -22.71 dB 2:50 05-Janis (Live at Woodstock, Bethel, NY, 8/16/1969) [2019 Mix]
DR13 -2.54 dB -19.24 dB 4:05 06-Donovan's Reef (Live at Woodstock, Bethel, NY, 8/16/1969) [2019 Mix]
DR14 -1.79 dB -19.80 dB 5:08 07-The "Fish" Cheer / I-Feel-Like-I'm-Fixin'-To-Die Rag (Live at Woodstock, Bethel, NY, 8/16/1969) [2019 Mix]
DR13 -2.07 dB -17.71 dB 3:18 43-Green River (Live at Woodstock, Bethel, NY, 8/17/1969) [2019 Mix]
DR13 -2.22 dB -17.38 dB 2:15 44-Bad Moon Rising (Live at Woodstock, Bethel, NY, 8/17/1969) [2019 Mix]
DR12 -1.48 dB -15.35 dB 4:24 45-I Put A Spell On You (Live at Woodstock, Bethel, NY, 8/17/1969) [2019 Mix]
DR14 -1.16 dB -18.81 dB 5:19 47-To Love Somebody (Live at Woodstock, Bethel, NY, 8/17/1969) [2019 Mix]
DR13 -1.09 dB -18.02 dB 4:54 48-Kozmic Blues (Live at Woodstock, Bethel, NY, 8/17/1969) [2019 Mix]
DR13 -1.37 dB -16.21 dB 3:57 49-Piece Of My Heart (Live at Woodstock, Bethel, NY, 8/17/1969) [2019 Mix]
DR15 -6.91 dB -28.05 dB 1:34 50-Music's for grooving, man (Live at Woodstock, Bethel, NY, 8/17/1969) [2019 Mix]
DR12 -1.69 dB -16.80 dB 6:28 51-Ball And Chain (Live at Woodstock, Bethel, NY, 8/17/1969) [2019 Mix]
DR11 -1.00 dB -13.75 dB 8:28 62-The Other Side Of This Life (Live at Woodstock, Bethel, NY, 8/17/1969) [2019 Mix]
DR12 -1.26 dB -15.85 dB 4:25 63-Somebody To Love (Live at Woodstock, Bethel, NY, 8/17/1969) [2019 Mix]
DR4 -10.22 dB -32.34 dB 0:13 64-Let's play it out of tune (Live at Woodstock, Bethel, NY, 8/17/1969) [2019 Mix]
DR11 -1.04 dB -14.48 dB 5:30 65-3/5 Of A Mile In 10 Seconds (Live at Woodstock, Bethel, NY, 8/17/1969) [2019 Mix]
DR12 -0.77 dB -15.40 dB 5:12 66-Won't You Try / Saturday Afternoon (Live at Woodstock, Bethel, NY, 8/17/1969) [2019 Mix]
DR14 -5.12 dB -29.37 dB 0:32 67-We got a whole lot of orange and it was fine (Live at Woodstock, Bethel, NY, 8/17/1969) [2019 Mix]
DR11 -1.10 dB -13.96 dB 4:31 68-Plastic Fantastic Lover (Live at Woodstock, Bethel, NY, 8/17/1969) [2019 Mix]
DR10 -1.36 dB -13.58 dB 3:02 69-Volunteers (Live at Woodstock, Bethel, NY, 8/17/1969) [2019 Mix]
DR15 -6.63 dB -27.95 dB 0:39 01-I guess the reason we're here is music (Live at Woodstock, Bethel, NY, 8/16/1969) [2019 Mix]
DR14 -9.42 dB -27.99 dB 1:55 42-You're carrying Janis' wah-wah pedals (Live at Woodstock, Bethel, NY, 8/16/1969) [2019 Mix]
DR13 -1.84 dB -18.85 dB 6:02 14-How Have You Been (Live at Woodstock, Bethel, NY, 8/16/1969) [2019 Mix]
DR11 -2.03 dB -18.14 dB 3:44 15-Rainbows All Over Your Blues (Live at Woodstock, Bethel, NY, 8/16/1969) [2019 Mix]
DR12 -4.51 dB -21.65 dB 3:37 16-I Had A Dream (Live at Woodstock, Bethel, NY, 8/16/1969) [2019 Mix]
DR13 -1.51 dB -17.46 dB 4:27 17-Darling Be Home Soon (Live at Woodstock, Bethel, NY, 8/16/1969) [2019 Mix]
DR13 -1.00 dB -17.58 dB 17:57 18-Halfbreed Medley: Sinning For You / Leaving Trunk / Just To Cry / Sinning For You (Live at Woodstock, Bethel, NY, 8/16/1969)
DR16 -6.08 dB -26.86 dB 4:10 39-It's a sinister plot! (Live at Woodstock, Bethel, NY, 8/16/1969) [2019 Mix]
DR15 -9.07 dB -28.89 dB 1:30 37-So many people have been able to participate in such a debacle (Live at Woodstock, Bethel, NY, 8/16/1969) [2019 Mix]
DR11 -2.57 dB -15.81 dB 5:04 32-Theme For An Imaginary Western (Live at Woodstock, Bethel, NY, 8/16/1969) [2019 Mix]
DR13 -2.25 dB -16.77 dB 5:45 33-Long Red (Live at Woodstock, Bethel, NY, 8/16/1969) [2019 Mix]
DR14 -1.63 dB -17.69 dB 3:56 34-Who Am I But You And The Sun (For Yasgur's Farm) [Live at Woodstock, Bethel, NY, 8/16/1969] [2019 Mix]
DR11 -1.10 dB -14.99 dB 6:18 35-Southbound Train (Live at Woodstock, Bethel, NY, 8/16/1969) [2019 Mix]
DR12 -1.62 dB -16.54 dB 8:20 02-They Live The Life (Live at Woodstock, Bethel, NY, 8/16/1969) [2019 Mix]
DR12 -1.99 dB -16.83 dB 5:31 03-That's How I Eat (Live at Woodstock, Bethel, NY, 8/16/1969) [2019 Mix]
DR13 -2.34 dB -19.20 dB 5:24 09-Savor (Live at Woodstock, Bethel, NY, 8/16/1969) [2019 Mix]
DR11 -2.96 dB -15.69 dB 5:18 10-Jingo (Live at Woodstock, Bethel, NY, 8/16/1969) [2019 Mix]
DR10 -2.17 dB -15.40 dB 3:53 11-Persuasion (Live at Woodstock, Bethel, NY, 8/16/1969) [2019 Mix]
DR12 -1.48 dB -17.15 dB 11:56 12-Soul Sacrifice (Live at Woodstock, Bethel, NY, 8/16/1969) [2019 Mix]
DR13 -1.49 dB -17.26 dB 22:32 53-Medley: Everyday People / Dance To The Music / Music Lover / I Want To Take You Higher (Live at Woodstock, Bethel, NY, 8/17/1969)
DR11 -1.16 dB -14.81 dB 2:41 38-Mama Tried (Live at Woodstock, Bethel, NY, 8/16/1969) [2019 Mix]
DR11 -1.36 dB -16.79 dB 19:19 40-Dark Star (Live at Woodstock, Bethel, NY, 8/16/1969) [2019 Mix]
DR13 -1.24 dB -19.57 dB 6:17 41-High Time (Live at Woodstock, Bethel, NY, 8/16/1969) [2019 Mix]
DR16 -7.48 dB -28.23 dB 1:43 21-Invocation (Live at Woodstock, Bethel, NY, 8/16/1969) [2019 Mix]
DR10 -0.73 dB -14.23 dB 5:34 22-The Letter (Live at Woodstock, Bethel, NY, 8/16/1969) [2019 Mix]
DR11 -2.09 dB -15.48 dB 5:07 23-Gather 'Round (Live at Woodstock, Bethel, NY, 8/16/1969) [2019 Mix]
DR10 -2.00 dB -15.17 dB 9:27 24-When You Find Out Who You Are (Live at Woodstock, Bethel, NY, 8/16/1969) [2019 Mix]
DR12 -0.60 dB -14.58 dB 2:25 55-I Can't Explain (Live at Woodstock, Bethel, NY, 8/17/1969) [2019 Mix]
DR12 -1.02 dB -15.26 dB 2:55 56-Pinball Wizard (Live at Woodstock, Bethel, NY, 8/17/1969) [2019 Mix]
DR10 -1.12 dB -13.75 dB 9:00 58-We're Not Gonna Take It (Live at Woodstock, Bethel, NY, 8/17/1969) [2019 Mix]
DR10 -0.57 dB -12.45 dB 4:44 59-Shakin' All Over (Live at Woodstock, Bethel, NY, 8/17/1969) [2019 Mix]
DR9 -0.27 dB -12.53 dB 7:13 60-My Generation (Live at Woodstock, Bethel, NY, 8/17/1969) [2019 Mix]
--------------------------------------------------------------------------------

Number of tracks: 69
Official DR value: DR13
Samplerate: 48000 Hz
Channels: 2
Bits per sample: 24
Bitrate: 1655 kbps
Codec: FLAC
================================================================================



Comments (7)


10 july 2019
quimgeoav   
0 
PR:XCityXXX GBXXX GBПостовХС
В
Л
Х

Obrigado


9 july 2019
Gaphofone   
0 
PR:XCityXXX GBXXX GBПостовХС
В
Л
Х

Merci beaucoup !


9 july 2019
FREDZAPPA   
0 
PR:XCityXXX GBXXX GBПостовХС
В
Л
Х

Este festival me hizo ver que había algo mas que Los Beatles!!


8 july 2019
toro   
0 
PR:XCityXXX GBXXX GBПостовХС
В
Л
Х

EstasOn11 - excelente documento musical.

Si fuera posible en mp3. Gracias/Thanks


7 july 2019
trader_01   
+1 
PR:XCityXXX GBXXX GBПостовХС
В
Л
Х

genau so !!!


7 july 2019
Bagdee   
+1 
PR:XCityXXX GBXXX GBПостовХС
В
Л
Х

Grand merci


7 july 2019
Phantastych   
+2 
PR:XCityXXX GBXXX GBПостовХС
В
Л
Х

Great, thanks



 

Similar albums

Please enable Javascript!
Пожалуйста включите Javascript, иначе данный и другие сайты могут работать не корректно! Узнать как включить Javascript можно на Google Support