Categories
Welcome to Music Torrent Tracker - Sound-Park  ι  JOIN US FOR FULL ACCESS  ι  Log In  ι  Forgot your password?

Edmar Castaneda & Gregoire Maret - Harp vs. Harp (Lossless, Hi Res 2019)

Jazz  Ethnic  World  Fusion
 
Date: 7 august 2019
Added: StasOn11
Views: 690
  • ARTIST: Edmar Castaneda & Gregoire Maret
  • ALBUM / TITLE: Harp vs. Harp
  • RELEASE YEAR / DATE: 2019
  • STYLE: Harp & Harmonica, Ethnic Jazz, World Fusion
  • LABEL: ACT Music
  • DURATION: 00:47:11
  • FILE FORMAT: FLAC, (tracks) 24 bits, 44,1 KHz
  • QUALITY: Lossless
  • Site: edmarcastaneda.com/ // gregoiremaret.com

  • RATING: 10 / 2    
  • VOTE:

  • DOWNLOAD: DOWNLOAD TORRENT
  • СИДЫ:

Torrent description



01 Blueserinho (Grégoire Maret) 04:55
02 Acts (Edmar Castaneda / Andrea Tierra) 06:37
03 No Fear (Edmar Castaneda) 07:31
04 Hope (Grégoire Maret) 06:59
05 Romance de Barrio (Anibal Troilo / Homero Manzi) 05:44
06 Santa Morena (Jacob do Bandolim) 04:51
07 Our Spanish Love Song (Charlie Haden) 06:06
08 Manhã de Carnaval (Luiz Bonfá) 04:26

Qobuz

Источник (релизер): soloneba

Несмотря на то, что джазовая сцена изобилует необычными экзотическими дуэтами, можно поспорить, что подобного вы еще не слышали. Если для любителей джаза на небесах существует свой эксклюзивный плейлист, то музыка этого тандема, наряду с переливами райских птиц, будет весьма и весьма востребована. И уж поверьте, высокопарные слова для звёзд современного джазового олимпа – колумбийского арфиста Эдмара Кастанеды и швейцарского исполнителя на губной гармонике Грегуара Маре — вполне уместны.

Эдмар Кастанеда (родился в 1978 году в Боготе, Колумбия) – арфист и композитор, сын популярного музыканта, певца и педагога Павелида Кастанеды. Он исполняет как свои собственные композиции, так и традиционную музыку Колумбии, Венесуэлы, Аргентины. Он регулярно гастролирует в качестве лидера Edmar Castañeda Trio, вместе с Дэвидом Силлиманом (барабаны, перкуссия) и Маршаллом Джилксом (тромбон). Он также входит в состав квартета своей супруги Андреа Тиерры – Andrea Tierra Quartet. Эдмар Кастанеда выступал с невероятно большим количеством джазовых и этнических музыкантов, среди которых Пакито Ривера, Уинтон Марсалис, Джон Скофилд, Джо Локк, Джон Патитуччи, Джованни Идальго, Лила Даунс и другие. В 2006 году он выпустил сольный альбом Cuarto de Colores, в июне 2009 года – Entre Cuerdas, а в 2012-ом – Double Portion. В 2017-ом на лейбле Telarc вышел диск с живым выступлением Эдмара Кастанеды и японской пианистки Хироми Уэхара на Международном джазовом фестивале в Монреале. А в 2019-м на лейбле ACT увидел свет совместный проект колумбийского виртуоза арфы со швейцарским исполнителем на губной гармонике Грегуаром Маре, названный Harp vs. Harp.

В свою очередь, исполнитель на губной гармонике и композитор Грегуар Маре (род. 13 мая 1975 г. в Женеве, Швейцария) вырос на юго-западной оконечности огромного озера Леман, окруженного горными хребтами Альп и Юра, с потрясающим видом на Монблан – в живописной Женеве. Его мать – афроамериканка, уроженка Гарлема, отец – швейцарец. После учебы в престижной Женевской консерватории Грегуар решил продолжить заниматься джазом в Нью-Йорке. Вскоре он начинал регулярно выступать с лучшими джазовыми музыкантами Нью-Йорка, и его возвращение в Швейцарию (где Маре хотел сделать карьеру учителя) отложилось на неопределенный срок. Сотрудничество с такими джазменами, как пианист Джеки Террассон, саксофонист Стив Коулмен, певица и бас-гитаристка Мишель Ндегеочелло, обогатило творческий стиль музыканта. За последнее десятилетие Грегуар Маре встал в ряд самых заметных и востребованных артистов на широкой сцене современного мирового джаза. Выбранный им редкий инструмент – губная гармоника – является лишь одним из объяснений его поразительного успеха. Грегуар Маре переосмыслил роль губной гармоники и открыл новые возможности этого инструмента через потрясающее разнообразие стилей. Перечень звезд, которые привлекали музыканта для участия в своих проектах, беспрецедентен: пианист Херби Хэнкок, гитаристы Пэт Мэтини и Маркус Миллер, певцы Кассандра Уилсон, Элтон Джон и Стинг. Херби Хэннок назвал Маре «одним из самых креативных музыкантов вообще», а Маркус Миллер заявил, что тот «несет инструмент в XXI век с мастерством, страстью и творчеством». Грегуар Маре сотрудничал на концертной эстраде и в студийных записях со многими известными артистами. Среди его партнеров — Рауль Мидон, Джимми Скотт, Джеки Террассон, Ришар Бона, Шон Джонс, Терри Лайн Кэррингтон, Курт Эллинг, Лайонел Луэке, Майк Стерн, Чарли Хантер. В 2003 году швейцарский режиссер Фредерик Байллиф снял о нем документальный фильм «Sideman», получивший несколько наград. Грегуар Маре является обладателем престижной награды Player of the Year Award от Ассоциации джазовых журналистов.

Edmar Castaneda / Llanera harp
Grégoire Maret / chromatic harmonica & chord harmonica

Guests:
Béla Fleck / banjo
Andrea Tierra / vocals


foobar2000 1.3.16 / Dynamic Range Meter 1.1.1
log date: 2019-06-14 06:04:18

--------------------------------------------------------------------------------
Analyzed: Gregoire Maret & Edmar Castaneda / Harp vs. Harp
--------------------------------------------------------------------------------

DR Peak RMS Duration Track
--------------------------------------------------------------------------------
DR10 -0.96 dB -13.17 dB 4:54 01-Blueserinho
DR13 -0.64 dB -17.25 dB 6:38 02-Acts
DR11 -0.44 dB -13.57 dB 7:31 03-No Fear
DR12 -0.87 dB -16.03 dB 7:00 04-Hope
DR10 -1.87 dB -13.98 dB 5:44 05-Romance de Barrio
DR10 -0.93 dB -14.22 dB 4:51 06-Santa Morena
DR11 -1.35 dB -14.81 dB 6:07 07-Our Spanish Love Song
DR11 -0.91 dB -14.88 dB 4:27 08-Manha De Carnaval
--------------------------------------------------------------------------------

Number of tracks: 8
Official DR value: DR11

Samplerate: 44100 Hz
Channels: 2
Bits per sample: 24
Bitrate: 1376 kbps
Codec: FLAC
================================================================================



Comments (3)


18 september 2019
chungcheng   
0 
PR:XCityXXX GBXXX GBПостовХС
В
Л
Х

Thanks for sharing


16 august 2019
Gaphofone   
0 
PR:XCityXXX GBXXX GBПостовХС
В
Л
Х

Cool ! Merci bien !


10 august 2019
chinchetas3q   
0 
PR:XCityXXX GBXXX GBПостовХС
В
Л
Х

Muchas gracias!!



 


Please enable Javascript!
Пожалуйста включите Javascript, иначе данный и другие сайты могут работать не корректно! Узнать как включить Javascript можно на Google Support