Categories
Welcome to Music Torrent Tracker - Sound-Park  ι  JOIN US FOR FULL ACCESS  ι  Log In  ι  Forgot your password?

Нашему проекту исполняется 10 лет! В связи с этим мы готовим крутейшую современную обнову. Вы можете нам помочь 🤘


Sales de Bano - Geometria del vinculo (Lossless, Hi Res 2019)

World  Fusion  Jazz  Avant-garde jazz
 
Date: 27 august 2019
Added: StasOn11
Views: 886
  • ARTIST: Sales de Baño
  • ALBUM / TITLE: Geometría del vínculo
  • RELEASE YEAR / DATE: 2019
  • COUNTRY: Lima, Peru
  • STYLE: World Fusion, Avant-Garde Jazz, Contemporary Jazz
  • LABEL: Buh Records
  • DURATION: 00:39:07
  • FILE FORMAT: FLAC, (tracks) 24 bits, 48 KHz
  • QUALITY: Lossless

  • RATING: 7.5 / 2    
  • VOTE:

  • DOWNLOAD: DOWNLOAD TORRENT
  • СИДЫ:

Torrent description



1. Asu. 4:06
2. Geometría del vínculo Parte I. 6:01
3. Confiamos en el veneno Parte I. 6:38
4. Primer temblor Parte I. 3:29
5. Geometría del vínculo Parte II. 6:02
6. Primer temblor Parte II. 3:16
7. Confiamos en el veneno Parte II. 4:38
8. Mono. 4:53

ВС

Источник (релизер): vp_sunset

Grabado y mezclado por Mariano Míguez
Asistente de grabación: Gustavo Bordagorry
Master por Sales de Baño y Maxi Forestieri
Fotografía por Maryana Campello
Grabado en diciembre del 2016 en La Casa de la Música, San Luis
a Juan Andrés

released April 30, 2019

- Carlos Quebrada / bajo y composición
- Federico Isasti / batería
- Andrés Marino / piano, teclados y electrónica
- Camilo Ángeles / flautas
- Mariano Cepeda / guitarra eléctrica
- Agustín Zuanigh / trompeta



foobar2000 1.4.2 / Замер динамического диапазона (DR) 1.1.1
Дата отчёта: 2019-08-26 21:09:35

--------------------------------------------------------------------------------
Анализ: Sales de Baño / Geometría del vínculo
--------------------------------------------------------------------------------

DR Пики RMS Продолжительность трека
--------------------------------------------------------------------------------
DR11 0.00 дБ -12.63 дБ 4:07 01-Asu
DR12 -0.05 дБ -13.84 дБ 6:01 02-Geometría del vínculo Parte I
DR11 -0.12 дБ -14.81 дБ 6:38 03-Confiamos en el veneno Parte I
DR11 -0.12 дБ -12.70 дБ 3:30 04-Primer temblor Parte I
DR13 -0.10 дБ -17.05 дБ 6:03 05-Geometría del vínculo Parte II
DR11 -1.00 дБ -16.20 дБ 3:16 06-Primer temblor Parte II
DR11 -0.09 дБ -14.41 дБ 4:38 07-Confiamos en el veneno Parte II
DR11 -0.14 дБ -14.28 дБ 4:53 08-Mono
--------------------------------------------------------------------------------

Количество треков: 8
Реальные значения DR: DR11

Частота: 48000 Гц
Каналов: 2
Разрядность: 24
Битрейт: 1439 кбит/с
Кодек: FLAC
================================================================================



Comments (2)


16 september 2019
chungcheng   
0 
PR:XCityXXX GBXXX GBПостовХС
В
Л
Х

Thanks for sharing


31 august 2019
poshoclin   
0 
PR:XCityXXX GBXXX GBПостовХС
В
Л
Х

Muchas Gracias Amigo!



 

  • Sales de Bano - Geometria del vinculo (Lossless, Hi Res 2019)
  • Download Sales de Bano - Geometria del vinculo (Lossless, Hi Res 2019) - free music torrent.

    Download Sales de Bano - Geometria del vinculo (Lossless, Hi Res 2019) for free in Lossless quality.

    You can download the torrent file on the top of the page
.

    Look for more music Sales de Baño


Please enable Javascript!
Пожалуйста включите Javascript, иначе данный и другие сайты могут работать не корректно! Узнать как включить Javascript можно на Google Support