Categories
Welcome to Music Torrent Tracker - Sound-Park  ι  JOIN US FOR FULL ACCESS  ι  Log In  ι  Forgot your password?

protoU - Anomalies (Lossless, Hi Res 2019)

Ambient  Other Electronic
 
Date: 20 january 2020
Added: StasOn11
Views: 249
  • ARTIST: protoU
  • ALBUM / TITLE: Anomalies
  • RELEASE YEAR / DATE: November 12, 2019
  • STYLE: Dark Ambient
  • LABEL: Cryo Chamber
  • DURATION: 00:58:40
  • FILE FORMAT: FLAC, (tracks) 24 bits, 44,1 KHz
  • QUALITY: Lossless

  • RATING: 10 / 2    
  • VOTE:

  • DOWNLOAD: DOWNLOAD TORRENT
  • СИДЫ:

Torrent description



◈ 01 - The Escape (00:08:04)
◈ 02 - Transparent Clusters (00:09:38)
◈ 03 - Electric Grounds (00:08:56)
◈ 04 - Lucid Sequences (00:06:00)
◈ 05 - Chamber of Visions (00:09:00)
◈ 06 - Ghost in You (part I) (00:06:58)
◈ 07 - Pellucid Waters (feat. Hilyard) (00:10:04)

ВС

3 years has passed since ProtoUs Cryo Chamber Debut album Lost Here. Sasha once again visits the realms beyond reality in this dream heavy sequel.

All this seems familiar. The gentle wind sets everything into slow motion once again. Distant tones of fractured memories pop in and out. Emotions flow. You barely feel the ground beneath. At least it feels like a surface. Not the one your feet are used to. Visions return. Cascading you with abstractions yet somehow you find sense in all of this. The return was inevitable. But first you need to escape

Recommended for fans of dreamy dark drones and ethereal atmospheres

released November 12, 2019

Written, Produced, Performed - Sasha Puzan
Artwork & Mastering - Simon Heath


foobar2000 1.2.5 / Замер динамического диапазона (DR) 1.1.1
Дата отчёта: 2020-01-01 18:59:23

--------------------------------------------------------------------------------
Анализ: protoU / Anomalies
--------------------------------------------------------------------------------

DR Пики RMS Продолжительность трека
--------------------------------------------------------------------------------
DR9 -0.65 дБ -12.59 дБ 8:04 01-The Escape
DR10 -0.65 дБ -14.43 дБ 9:38 02-Transparent Clusters
DR7 -0.65 дБ -9.01 дБ 8:56 03-Electric Grounds
DR11 -0.65 дБ -14.31 дБ 6:00 04-Lucid Sequences
DR10 -0.65 дБ -13.86 дБ 9:00 05-Chamber of Visions
DR9 -0.65 дБ -12.36 дБ 6:58 06-Ghost in You (part I)
DR9 -0.65 дБ -13.67 дБ 10:04 07-Pellucid Waters (feat. Hilyard)
--------------------------------------------------------------------------------

Количество треков: 7
Реальные значения DR: DR9

Частота: 44100 Гц
Каналов: 2
Разрядность: 24
Битрейт: 1291 кбит/с
Кодек: FLAC
================================================================================



Comments (2)


20 january 2020
Kozloff   
0 
PR:XCityXXX GBXXX GBПостовХС
В
Л
Х

Many Thanks!


20 january 2020
Bagdee   
0 
PR:XCityXXX GBXXX GBПостовХС
В
Л
Х

Thank you StasOn



 

Please enable Javascript!
Пожалуйста включите Javascript, иначе данный и другие сайты могут работать не корректно! Узнать как включить Javascript можно на Google Support